<?xml version="1.0" standalone="no"?>
<!DOCTYPE svg PUBLIC "-//W3C//DTD SVG 1.1//EN" "http://www.w3.org/Graphics/SVG/1.1/DTD/svg11.dtd" >
<svg xmlns="http://www.w3.org/2000/svg" xmlns:xlink="http://www.w3.org/1999/xlink" version="1.1">
<metadata>
Created by FontForge 20170731 at Wed May 31 19:14:17 2023
 By Aleksey,,,
Copyright (c) 2018 by TipoType Team. All rights reserved. |DCNT
</metadata>
<defs>
<font id="Fieldwork-GeoBold" horiz-adv-x="1349" >
  <font-face 
    font-family="Fieldwork Geo Bold"
    font-weight="700"
    font-stretch="normal"
    units-per-em="2048"
    panose-1="0 0 0 0 0 0 0 0 0 0"
    ascent="1407"
    descent="-641"
    x-height="961"
    cap-height="1358"
    bbox="-348 -768 3131 2294"
    underline-thickness="149"
    underline-position="-949"
    unicode-range="U+000D-FB04"
  />
<missing-glyph horiz-adv-x="1417" 
d="M1219 0h-1018v1358h1018v-1358zM711 776l-244 242l-96 -96l241 -240l-243 -246l96 -96l246 242l241 -242l99 96l-244 246l242 240l-99 96z" />
    <glyph glyph-name="ff" unicode="ff" horiz-adv-x="1443" 
d="M1421 961v-259h-256v-702h-313v702h-348v-702h-316v702h-157v259h157v83q0 173 104.5 279.5t287.5 106.5q70 0 178 -23l-33 -256q-56 16 -96 16q-63 0 -100 -34t-37 -105v-67h360v83q0 77 25 144t74 121.5t131.5 86t189.5 31.5q97 0 205 -30l-33 -256q-28 11 -63.5 18
t-76 5t-73.5 -14.5t-54.5 -44t-21.5 -79.5v-65h266z" />
    <glyph glyph-name="fi" unicode="fi" horiz-adv-x="1271" 
d="M727 961v-259h-223v-702h-316v702h-157v259h157v83q0 173 104.5 279.5t287.5 106.5q70 0 178 -23l-33 -256q-56 16 -96 16q-63 0 -100 -34t-37 -105v-67h235zM862 961h316v-961h-316v961zM1020 1083q-77 0 -124.5 48t-47.5 124t47.5 124t124.5 48q75 0 124.5 -48.5
t49.5 -123.5t-49.5 -123.5t-124.5 -48.5z" />
    <glyph glyph-name="fl" unicode="fl" horiz-adv-x="1277" 
d="M727 961v-259h-223v-702h-316v702h-157v259h157v83q0 173 104.5 279.5t287.5 106.5q70 0 178 -23l-33 -256q-56 16 -96 16q-63 0 -100 -34t-37 -105v-67h235zM866 1407h316v-1407h-316v1407z" />
    <glyph glyph-name="ffi" unicode="ffi" horiz-adv-x="1925" 
d="M1417 961v-259h-243v-702h-316v702h-354v-702h-316v702h-157v259h157v83q0 173 104.5 279.5t287.5 106.5q70 0 178 -23l-33 -256q-56 16 -96 16q-63 0 -100 -34t-37 -105v-67h366v83q0 173 104.5 279.5t286.5 106.5q70 0 178 -23l-30 -256q-56 16 -99 16q-63 0 -100 -34
t-37 -105v-67h256zM1516 961h315v-961h-315v961zM1671 1083q-75 0 -123.5 48.5t-48.5 123.5t48.5 123.5t123.5 48.5q77 0 125.5 -48.5t48.5 -123.5t-48.5 -123.5t-125.5 -48.5z" />
    <glyph glyph-name="ffl" unicode="ffl" horiz-adv-x="1935" 
d="M1415 961v-259h-244v-702h-315v702h-352v-702h-316v702h-157v259h157v83q0 173 104.5 279.5t287.5 106.5q70 0 178 -23l-33 -256q-56 16 -96 16q-63 0 -100 -34t-37 -105v-67h364v83q0 173 104.5 279.5t286.5 106.5q70 0 178 -23l-30 -256q-56 16 -99 16q-63 0 -100 -34
t-37 -105v-67h256zM1526 1407h315v-1407h-315v1407z" />
    <glyph glyph-name="Th" unicode="Th" horiz-adv-x="2269" 
d="M750 0h-328v1075h-402v283h1082v-283h-352v-1075zM1231 1407h313v-530q98 104 283 104q143 0 248.5 -97.5t105.5 -258.5v-625h-313v535q0 71 -48 114t-114 43q-68 0 -114 -43t-46 -114v-535h-315v1407z" />
    <glyph glyph-name="fj" unicode="fj" horiz-adv-x="1282" 
d="M748 961v-259h-244v-702h-316v702h-157v259h157v83q0 173 104.5 279.5t287.5 106.5q70 0 178 -23l-33 -256q-56 16 -96 16q-63 0 -100 -34t-37 -105v-67h256zM1028 1083q-75 0 -123.5 48.5t-48.5 123.5t48.5 123.5t123.5 48.5q78 0 126 -48.5t48 -123.5t-48 -123.5
t-126 -48.5zM600 -377l27 248q73 -21 118 -21q127 0 127 140v968h316v-993q0 -95 -31 -170t-83.5 -121t-118.5 -70t-140 -24q-139 0 -215 43z" />
    <glyph glyph-name="ft" unicode="ft" horiz-adv-x="1507" 
d="M1432 961v-259h-263v-309q0 -47 17 -77t43.5 -43t67.5 -14.5t80 4.5t89 18l23 -256q-116 -45 -254 -45q-179 0 -280 91t-101 271v360h-350v-702h-316v702h-157v259h157v83q0 173 104.5 279.5t287.5 106.5q70 0 178 -23l-33 -256q-56 16 -96 16q-63 0 -100 -34t-37 -105
v-67h362v307h305v-307h273z" />
    <glyph glyph-name=".notdef" horiz-adv-x="1417" 
d="M1219 0h-1018v1358h1018v-1358zM711 776l-244 242l-96 -96l241 -240l-243 -246l96 -96l246 242l241 -242l99 96l-244 246l242 240l-99 96z" />
    <glyph glyph-name=".null" horiz-adv-x="0" 
 />
    <glyph glyph-name="nonmarkingreturn" horiz-adv-x="682" 
 />
    <glyph glyph-name="CR.001" unicode="&#xd;" horiz-adv-x="483" 
 />
    <glyph glyph-name="CR.001" horiz-adv-x="483" 
 />
    <glyph glyph-name="space" unicode=" " horiz-adv-x="497" 
 />
    <glyph glyph-name="exclam" unicode="!" horiz-adv-x="538" 
d="M383 408h-227l-60 950h344zM143 29q-49 51 -49 123t49 122q51 50 125 50t123 -50q51 -50 51 -122t-51 -123q-49 -49 -123 -49t-125 49z" />
    <glyph glyph-name="quotedbl" unicode="&#x22;" horiz-adv-x="851" 
d="M369 1427l-54 -509h-192l-53 509h299zM780 1427l-53 -509h-192l-54 509h299z" />
    <glyph glyph-name="numbersign" unicode="#" horiz-adv-x="1417" 
d="M950 1358h256l-51 -291h221l-39 -227h-223l-55 -301h223l-43 -228h-219l-57 -311h-256l55 311h-242l-55 -311h-256l55 311h-221l41 228h221l55 301h-223l41 227h223l52 291h256l-50 -291h240zM616 840l-55 -301h244l53 301h-242z" />
    <glyph glyph-name="dollar" unicode="$" horiz-adv-x="1013" 
d="M377 1505h256l-17 -235q184 -15 295 -72l-26 -278q-49 27 -158 53q-118 28 -203 28q-153 0 -153 -81q0 -39 37 -58q42 -19 79 -28l160 -48q162 -45 243 -127.5t81 -209.5q0 -139 -91.5 -233.5t-252.5 -123.5l14 -242h-256l16 236q-104 7 -198 30t-144 52l27 285
q37 -29 164 -62q134 -35 235 -35q166 0 166 82q0 31 -23.5 50t-78.5 32l-174 43q-322 79 -322 342q0 139 91 234.5t247 124.5z" />
    <glyph glyph-name="percent" unicode="%" horiz-adv-x="1888" 
d="M86 1001q0 162 107 269q108 108 270 108q166 0 274 -108q109 -109 109 -269q0 -157 -109 -266q-106 -106 -274 -106q-164 0 -270 106q-107 107 -107 266zM313 1001q0 -64 43.5 -107.5t108.5 -43.5q62 0 103.5 43.5t41.5 107.5q0 66 -41 111t-104 45q-66 0 -109 -45
t-43 -111zM1034 352q0 162 107 269q108 108 272 108q165 0 273 -108t108 -269q0 -158 -108 -266q-106 -106 -273 -106q-166 0 -272 106q-107 107 -107 266zM1264 352q0 -64 42 -107.5t107 -43.5q63 0 105.5 44t42.5 107q0 66 -42.5 111t-105.5 45q-65 0 -107 -44.5
t-42 -111.5zM657 0h-168v27l736 1331h164v-25z" />
    <glyph glyph-name="ampersand" unicode="&#x26;" horiz-adv-x="1484" 
d="M1024 1315l-23 -268q-112 55 -276 55q-82 0 -128 -30.5t-46 -94.5q0 -40 34 -84.5t128 -132.5l272 -260q27 36 43.5 101t15.5 136h302q1 -125 -41 -241.5t-109 -194.5l305 -301h-377l-125 115q-156 -135 -401 -135q-85 0 -164 16t-149 50.5t-122 85t-82 124t-30 162.5
q0 114 70 215q69 100 178 153q-78 96 -78 226q0 76 27.5 138.5t73.5 104t109 70t132.5 41t145.5 12.5q177 0 315 -63zM612 250q111 0 185 51l-322 301q-44 -26 -72 -70t-28 -94q0 -86 65.5 -137t171.5 -51z" />
    <glyph glyph-name="quotesingle" unicode="'" horiz-adv-x="438" 
d="M369 1427l-54 -509h-192l-53 509h299z" />
    <glyph glyph-name="parenleft" unicode="(" horiz-adv-x="686" 
d="M672 -399h-293q-149 194 -235.5 446.5t-86.5 532.5q0 524 322 981h293q-299 -476 -299 -981q0 -503 299 -979z" />
    <glyph glyph-name="parenright" unicode=")" horiz-adv-x="686" 
d="M14 1561h293q152 -196 238 -447.5t86 -533.5q0 -519 -324 -979h-293q301 475 301 979q0 506 -301 981z" />
    <glyph glyph-name="asterisk" unicode="*" horiz-adv-x="874" 
d="M303 684l-174 121l152 184l-232 76l70 188l221 -82l-12 236h219l-12 -236l221 82l69 -188l-233 -76l153 -182l-174 -123l-135 201z" />
    <glyph glyph-name="plus" unicode="+" horiz-adv-x="1212" 
d="M768 152h-328v391h-397v282h397v383h328v-383h401v-282h-401v-391z" />
    <glyph glyph-name="comma" unicode="," horiz-adv-x="546" 
d="M23 -262l137 516h311l-192 -516h-256z" />
    <glyph glyph-name="hyphen" unicode="-" horiz-adv-x="892" 
d="M82 668h729v-244h-729v244z" />
    <glyph glyph-name="period" unicode="." horiz-adv-x="479" 
d="M117 29q-51 51 -51.5 123.5t49.5 121.5q51 50 125 50t125 -50t51 -122t-51 -123q-51 -49 -125 -49t-123 49z" />
    <glyph glyph-name="slash" unicode="/" horiz-adv-x="1134" 
d="M797 1530h311l-770 -1929h-309z" />
    <glyph glyph-name="zero" unicode="0" horiz-adv-x="1325" 
d="M68 670q0 149 34.5 274t104.5 223.5t187 154.5t270 56q106 0 194.5 -27.5t152.5 -77t112 -115.5t77 -146.5t43 -165.5t14 -176q0 -118 -21 -220t-67 -189t-114.5 -149t-168.5 -97t-224 -35q-152 0 -267.5 53t-186 148t-105.5 218t-35 271zM393 680q0 -84 15.5 -157
t46.5 -132t84.5 -93t124.5 -34q72 0 125.5 36t83.5 97.5t44.5 132t14.5 150.5q0 85 -15 157.5t-46 131t-84 92t-123 33.5q-72 0 -126.5 -35.5t-85 -96t-45 -131.5t-14.5 -151z" />
    <glyph glyph-name="one" unicode="1" horiz-adv-x="788" 
d="M672 0h-330v1075h-317v283h647v-1358z" />
    <glyph glyph-name="two" unicode="2" horiz-adv-x="1103" 
d="M492 283h557v-283h-994v240l455 397q158 140 158 283q0 174 -222 174q-84 0 -186 -27q-102 -25 -154 -57l-38 272q203 96 413 96q85 0 160.5 -14t144 -46.5t117.5 -81.5t78 -124.5t29 -169.5q0 -105 -41.5 -191t-152 -196t-324.5 -272z" />
    <glyph glyph-name="three" unicode="3" horiz-adv-x="1155" 
d="M324 561v209l303 305h-514v283h915v-240l-344 -325q184 -15 297 -119q115 -106 115 -266q0 -94 -31.5 -168.5t-85 -122.5t-128.5 -79.5t-157 -44.5t-176 -13q-122 0 -247 26.5t-224 71.5l35 276q84 -45 196.5 -69.5t217.5 -24.5q262 0 262 158q0 77 -73 120.5t-196 43.5
q-95 0 -165 -21z" />
    <glyph glyph-name="four" unicode="4" horiz-adv-x="1224" 
d="M444 1358h353l-406 -789h303v271h312v-271h186v-270h-186v-299h-312v299h-657v229z" />
    <glyph glyph-name="five" unicode="5" horiz-adv-x="1146" 
d="M518 -20q-256 0 -465 96l47 278q181 -94 379 -94q260 0 260 178q0 93 -71 142t-209 49q-166 0 -291 -43l-62 53l89 719h835v-283h-575l-23 -198q40 6 103 6q156 0 279.5 -47t199.5 -146t76 -237q0 -122 -42 -214t-120 -148t-180.5 -83.5t-229.5 -27.5z" />
    <glyph glyph-name="six" unicode="6" horiz-adv-x="1236" 
d="M1100 1307l-27 -273q-50 24 -107.5 41.5t-120 25.5t-122 5t-115 -23t-98.5 -54t-71.5 -92.5t-35.5 -135.5q44 52 122 83t173 31q79 0 149 -16t132 -50.5t106.5 -86t70.5 -126.5t26 -167q0 -230 -151 -359.5t-398 -129.5q-117 0 -212.5 33t-160 90.5t-108.5 137.5t-64 173
t-20 198q0 368 173.5 567t497.5 199q201 0 361 -71zM793 602q-63 57 -156 57t-156 -57q-61 -55 -61 -143q0 -86 61 -144q63 -57 156 -57q94 0 154 57q63 57 63 144q0 88 -61 143z" />
    <glyph glyph-name="seven" unicode="7" horiz-adv-x="1040" 
d="M1012 1126l-529 -1126h-368l534 1067h-614v291h977v-232z" />
    <glyph glyph-name="eight" unicode="8" horiz-adv-x="1247" 
d="M401 412q0 -78 63 -124t159 -46t158.5 46t62.5 124q0 80 -61 126t-160 46q-97 0 -159.5 -46t-62.5 -126zM68 383q0 113 60 197t169 135q-95 43 -148 115t-53 169q0 78 30.5 142t81.5 107.5t119 73t142.5 43t153.5 13.5q80 0 154.5 -13.5t143 -43t119 -73t81 -107.5
t30.5 -142q0 -97 -53.5 -169t-147.5 -115q109 -51 169.5 -135t60.5 -197q0 -86 -32.5 -155.5t-86.5 -115t-127 -76t-150.5 -43.5t-160.5 -13q-82 0 -158.5 13t-149.5 43.5t-127 76t-87 115t-33 155.5zM432 971q0 -74 51 -115t140 -41q91 0 140.5 40.5t49.5 115.5
q0 62 -52.5 102.5t-137.5 40.5t-138 -40.5t-53 -102.5z" />
    <glyph glyph-name="nine" unicode="9" horiz-adv-x="1236" 
d="M137 51l25 273q61 -27 128.5 -44.5t141 -24.5t141 7t123 45.5t93 95.5t45.5 154q-44 -52 -122 -83.5t-173 -31.5q-78 0 -148 16t-132.5 51t-107.5 86.5t-71.5 126.5t-26.5 167q0 230 151 359.5t398 129.5q146 0 257.5 -50t177 -138.5t98 -200t32.5 -244.5
q0 -366 -173.5 -565.5t-497.5 -199.5q-199 0 -359 71zM444 756q63 -57 155 -57.5t155 55.5q63 57 63 143q0 88 -63 145t-155 57t-155 -57t-63 -145q0 -87 63 -141z" />
    <glyph glyph-name="colon" unicode=":" horiz-adv-x="512" 
d="M131 29q-49 51 -49 123t49 122q51 50 125 50t123 -50q51 -50 51 -122t-51 -123q-49 -49 -123 -49t-125 49zM131 684q-49 51 -49 123.5t49 122.5q51 51 125 51t123 -51q51 -50 51 -122t-51 -122q-49 -49 -123 -49.5t-125 47.5z" />
    <glyph glyph-name="semicolon" unicode=";" horiz-adv-x="575" 
d="M37 -262l135 516h313l-192 -516h-256zM197 684q-51 51 -51.5 124t49.5 122q51 51 124.5 51t124.5 -51q51 -50 51 -122t-51 -122q-51 -49 -124.5 -49.5t-122.5 47.5z" />
    <glyph glyph-name="less" unicode="&#x3c;" horiz-adv-x="1161" 
d="M455 680l628 -272v-320l-1028 463v258l1028 463v-322z" />
    <glyph glyph-name="equal" unicode="=" horiz-adv-x="1257" 
d="M86 594h1085v-287h-1085v287zM86 1053h1085v-287h-1085v287z" />
    <glyph glyph-name="greater" unicode="&#x3e;" horiz-adv-x="1161" 
d="M707 680l-629 272v320l1028 -463v-256l-1028 -465v322z" />
    <glyph glyph-name="question" unicode="?" horiz-adv-x="993" 
d="M575 535l-26 -162h-252l-27 256l22 13q22 14 38 22q58 35 125 79q70 49 106 95t37 104q0 156 -203 156q-83 0 -174 -27q-85 -25 -143 -55l-41 264q180 98 399 98q81 0 154 -13.5t138.5 -44t113.5 -75.5t76 -112.5t28 -151.5q0 -152 -102 -254q-48 -50 -106.5 -91
t-162.5 -101zM299 29q-49 51 -49 123t49 122t124 50t124 -50q51 -50 51 -122t-51 -123q-49 -49 -124 -49t-124 49z" />
    <glyph glyph-name="at" unicode="@" horiz-adv-x="1855" 
d="M1124 961h254v-599q0 -63 27 -100t74 -37q80 0 125 99t45 262q0 141 -53.5 266.5t-146.5 216.5t-225.5 144t-283.5 53q-333 0 -539 -203q-204 -201 -204 -531q-3 -148 54 -283.5t156 -232.5t236 -153t287 -53q212 0 418 108l57 -121q-238 -131 -475 -131
q-176 0 -336.5 64.5t-280.5 177t-191 276.5t-71 351q0 189 70.5 355.5t193.5 278.5q124 113 288.5 175.5t346.5 62.5q169 0 324 -63t270 -171t183.5 -261.5t68.5 -325.5q0 -236 -91.5 -370t-242.5 -132q-187 0 -270 176q-39 -73 -121 -124.5t-176 -51.5q-174 0 -303 129
t-129 317q0 198 112 322q114 129 285 129q166 0 254 -111zM920 743q-82 0 -139.5 -60.5t-57.5 -147.5q0 -86 57.5 -146.5t139.5 -60.5t138 60.5t56 146.5q0 88 -56 148t-138 60z" />
    <glyph glyph-name="A" unicode="A" horiz-adv-x="1482" 
d="M741 1028l-192 -522h387zM1120 0l-92 250h-573l-93 -250h-352l537 1358h389l537 -1358h-353z" />
    <glyph glyph-name="B" unicode="B" horiz-adv-x="1329" 
d="M856 0h-743v1358h680q171 0 290 -96t119 -258q0 -204 -180 -308q120 -41 185 -126t65 -199q0 -170 -119 -271q-118 -100 -297 -100zM770 553h-328v-279h328q65 0 104 38.5t39 99.5q0 64 -38 102.5t-105 38.5zM719 1083h-277v-278h285q62 0 97.5 38t35.5 101
q0 62 -39 100.5t-102 38.5z" />
    <glyph glyph-name="C" unicode="C" horiz-adv-x="1341" 
d="M59 678q0 136 43 251t117.5 196.5t174.5 139.5t215 85.5t239 27.5q221 0 428 -92l-23 -287q-160 80 -358 80q-99 0 -186 -22.5t-158.5 -68.5t-113.5 -124.5t-42 -181.5q0 -187 129 -301q131 -113 334 -113q229 0 397 107l45 -281q-231 -114 -491 -114q-203 -4 -375 83
t-274.5 249.5t-100.5 365.5z" />
    <glyph glyph-name="D" unicode="D" horiz-adv-x="1466" 
d="M709 0h-596v1358h596q328 0 512 -178t184 -498t-188 -502q-186 -180 -508 -180zM680 1081h-238v-805h238q193 0 290 103.5t97 302.5q0 399 -387 399z" />
    <glyph glyph-name="E" unicode="E" horiz-adv-x="1206" 
d="M442 276h707v-276h-1036v1358h1026v-277h-697v-252h617v-276h-617v-277z" />
    <glyph glyph-name="F" unicode="F" horiz-adv-x="1134" 
d="M958 545h-516v-545h-329v1358h989v-277h-660v-260h516v-276z" />
    <glyph glyph-name="G" unicode="G" horiz-adv-x="1462" 
d="M1059 305v207h-318v268h645v-661q-119 -63 -263.5 -100t-274.5 -37q-241 0 -418 88q-179 91 -275 249.5t-96 362.5q0 136 44 251t119.5 196t178 138t220 84t243.5 27q244 0 457 -94l-23 -283q-194 84 -403 84q-81 0 -153 -14t-136 -45t-110.5 -77t-73.5 -114.5
t-27 -152.5q0 -187 121 -299q123 -111 315 -111q146 0 228 33z" />
    <glyph glyph-name="H" unicode="H" horiz-adv-x="1472" 
d="M1030 555h-588v-555h-329v1358h329v-527h588v527h330v-1358h-330v555z" />
    <glyph glyph-name="I" unicode="I" horiz-adv-x="555" 
d="M113 1358h329v-1358h-329v1358z" />
    <glyph glyph-name="J" unicode="J" horiz-adv-x="1077" 
d="M25 72l34 276q46 -18 94 -33.5t107 -28.5t111 -18.5t103 1t87.5 25.5t59 59.5t22.5 99.5v626h-463v279h793v-932q0 -113 -45.5 -201t-121.5 -140t-167 -78.5t-190 -26.5q-126 0 -219 19t-205 73z" />
    <glyph glyph-name="K" unicode="K" horiz-adv-x="1406" 
d="M442 1358v-557h207l314 555h364l-414 -701l504 -655h-403l-385 522h-187v-522h-329v1358h329z" />
    <glyph glyph-name="L" unicode="L" horiz-adv-x="1153" 
d="M442 276h688v-276h-1017v1358h329v-1082z" />
    <glyph glyph-name="M" unicode="M" horiz-adv-x="1740" 
d="M113 0v1358h278l479 -570l480 570h276v-1358h-328v848l-405 -465h-41l-410 465v-848h-329z" />
    <glyph glyph-name="N" unicode="N" horiz-adv-x="1529" 
d="M1133 0l-691 819v-819h-329v1358h280l694 -828v828h330v-1358h-284z" />
    <glyph glyph-name="O" unicode="O" horiz-adv-x="1562" 
d="M59 682q-2 149 52 279.5t149.5 222.5t231 144t290.5 50q208 3 374 -87t258 -251t89 -360q3 -201 -89 -362t-258 -250.5t-374 -87.5q-319 0 -522 194q-201 198 -201 508zM393 680q0 -175 109 -287q107 -110 284 -110q171 0 275 110q106 109 106 287q0 177 -106 283
q-104 110 -275 110q-177 0 -284 -110q-109 -109 -109 -283z" />
    <glyph glyph-name="P" unicode="P" horiz-adv-x="1312" 
d="M731 1081h-289v-419h289q91 0 148 59t57 151q0 94 -56.5 151.5t-148.5 57.5zM1272 870q0 -213 -147 -349t-369 -136h-314v-385h-329v1358h643q222 0 369 -136t147 -352z" />
    <glyph glyph-name="Q" unicode="Q" horiz-adv-x="1562" 
d="M59 682q-2 149 52 279.5t149.5 222.5t231 144t290.5 50q208 3 374 -87t258 -251t89 -360q0 -236 -121 -410.5t-331 -246.5q96 -70 209.5 -110t228.5 -40q99 0 217 23v-240q-113 -39 -250 -39q-221 0 -420 100q-201 100 -311 265q-299 18 -483 211q-183 195 -183 489z
M393 680q0 -175 109 -287q107 -110 284 -110q171 0 275 110q106 109 106 287q0 177 -106 283q-104 110 -275 110q-177 0 -284 -110q-109 -109 -109 -283z" />
    <glyph glyph-name="R" unicode="R" horiz-adv-x="1411" 
d="M696 385h-254v-385h-329v1358h645q224 0 370 -137q148 -136 148 -349q0 -129 -66 -240.5t-178 -178.5l348 -453h-395zM735 1081h-293v-419h293q91 0 147 59t56 151q0 94 -56 151.5t-147 57.5z" />
    <glyph glyph-name="S" unicode="S" horiz-adv-x="1175" 
d="M596 1378q260 0 457 -96l-27 -281q-52 32 -174 60q-126 33 -242 33q-211 0 -211 -121q0 -43 33 -76q18 -14 37 -23q34 -15 88 -28l195 -58q198 -56 286 -146t88 -243q0 -186 -147 -303q-146 -116 -393 -116q-154 0 -293 32q-154 35 -221 74l26 289q25 -28 181 -70
q148 -37 282 -37q227 0 227 121q0 45 -33 73t-110 48l-211 53q-115 38 -209 94q-162 103 -162 299q0 190 146 306t387 116z" />
    <glyph glyph-name="T" unicode="T" horiz-adv-x="1171" 
d="M750 0h-328v1075h-402v283h1131v-283h-401v-1075z" />
    <glyph glyph-name="U" unicode="U" horiz-adv-x="1406" 
d="M104 489v869h330v-850q0 -120 71.5 -182t196.5 -62q127 0 199 62.5t72 181.5v850h330v-869q0 -104 -32.5 -190t-88.5 -144.5t-132.5 -98.5t-163.5 -58t-184 -18q-173 0 -305.5 54t-212.5 170.5t-80 284.5z" />
    <glyph glyph-name="V" unicode="V" horiz-adv-x="1441" 
d="M1069 1358h358l-489 -1358h-430l-496 1358h361l350 -1026z" />
    <glyph glyph-name="W" unicode="W" horiz-adv-x="2062" 
d="M807 0h-418l-366 1358h331l267 -1010l278 989h262l281 -989l264 1010h334l-367 -1358h-418l-225 743z" />
    <glyph glyph-name="X" unicode="X" horiz-adv-x="1431" 
d="M1040 0l-323 465l-326 -465h-385l516 694l-489 664h385l299 -422l297 422h385l-490 -664l516 -694h-385z" />
    <glyph glyph-name="Y" unicode="Y" horiz-adv-x="1501" 
d="M918 0h-330v506l-578 852h393l355 -518l358 518h375l-573 -852v-506z" />
    <glyph glyph-name="Z" unicode="Z" horiz-adv-x="1189" 
d="M1137 0h-1082v219l647 858h-647v281h1082v-221l-648 -856h648v-281z" />
    <glyph glyph-name="bracketleft" unicode="[" horiz-adv-x="741" 
d="M414 -176h301v-223h-606v1951h606v-223h-301v-1505z" />
    <glyph glyph-name="backslash" unicode="\" horiz-adv-x="1134" 
d="M1106 -399h-309l-770 1929h311z" />
    <glyph glyph-name="bracketright" unicode="]" horiz-adv-x="741" 
d="M328 1329h-301v223h606v-1951h-606v223h301v1505z" />
    <glyph glyph-name="asciicircum" unicode="^" horiz-adv-x="1288" 
d="M879 510l-236 469l-231 -469h-369l477 848h248l477 -848h-366z" />
    <glyph glyph-name="underscore" unicode="_" horiz-adv-x="1136" 
d="M1069 -59v-232h-1003v232h1003z" />
    <glyph glyph-name="grave" unicode="`" horiz-adv-x="716" 
d="M621 1473h-263l-262 333h363z" />
    <glyph glyph-name="a" unicode="a" horiz-adv-x="1191" 
d="M1096 961v-961h-305l-11 100q-99 -120 -282 -120q-194 0 -320 141q-125 143 -125 358q0 216 125 359t320 143q183 0 282 -123l11 103h305zM573 700q-91 0 -149 -61q-57 -60 -57 -160t57 -160q58 -61 147 -61q92 0 150.5 61.5t58.5 159.5q0 97 -57.5 158.5t-149.5 62.5z
" />
    <glyph glyph-name="b" unicode="b" horiz-adv-x="1193" 
d="M410 74l-11 -74h-305v1409h307v-551q95 123 291 123q202 0 324 -143q125 -140 125 -361q0 -218 -125 -358q-124 -139 -324 -139q-87 0 -163.5 26t-118.5 68zM610 698q-88 0 -146 -61.5t-58 -157.5t57.5 -156.5t146.5 -60.5q92 0 152.5 61.5t60.5 155.5q0 97 -60 158
t-153 61z" />
    <glyph glyph-name="c" unicode="c" horiz-adv-x="954" 
d="M53 477q0 160 71.5 276t190 172t269.5 56q158 0 315 -66l-22 -268q-115 47 -238 47q-125 0 -197.5 -52t-72.5 -163q0 -98 70.5 -154.5t183.5 -56.5q72 0 127 15t131 53l30 -277q-87 -43 -159.5 -61t-163.5 -18q-232 0 -383 139q-152 140 -152 358z" />
    <glyph glyph-name="d" unicode="d" horiz-adv-x="1193" 
d="M1100 1409v-1409h-305l-11 74q-43 -43 -118 -68.5t-164 -25.5q-199 0 -326 139q-123 141 -123 358q0 220 123 361q125 143 326 143q196 0 291 -123v551h307zM584 698q-93 0 -153 -61t-60 -158q0 -94 60.5 -155.5t152.5 -61.5q89 0 146.5 60.5t57.5 156.5t-58 157.5
t-146 61.5z" />
    <glyph glyph-name="e" unicode="e" horiz-adv-x="1067" 
d="M360 584h359q0 61 -47 103t-121 42q-83 0 -134 -40t-57 -105zM938 301l43 -235q-65 -37 -162 -61.5t-196 -24.5q-268 0 -418 135q-152 140 -152 364q0 226 137 363q139 139 355 139q108 0 199.5 -36.5t158 -105.5t94 -183t2.5 -257h-639q10 -75 82 -114t183 -39
q89 0 175.5 15.5t137.5 39.5z" />
    <glyph glyph-name="f" unicode="f" horiz-adv-x="780" 
d="M758 961v-259h-254v-702h-316v702h-157v259h157v83q0 77 25 144t74 121.5t131.5 86t189.5 31.5q97 0 205 -30l-33 -256q-36 15 -82 20t-93.5 -1t-80 -40.5t-32.5 -93.5v-65h266z" />
    <glyph glyph-name="g" unicode="g" horiz-adv-x="1193" 
d="M584 698q-93 0 -153 -61t-60 -158q0 -94 60.5 -155.5t152.5 -61.5q89 0 146.5 60.5t57.5 156.5t-58 157.5t-146 61.5zM784 31v55q-37 -49 -113 -77.5t-169 -28.5q-199 0 -326 139q-123 141 -123 358q0 220 123 361q125 143 326 143q196 0 291 -123l10 103h295v-947
q0 -92 -34.5 -166.5t-91 -123.5t-133 -82t-156.5 -47.5t-165 -14.5q-204 0 -377 78l29 262q40 -22 133 -43q90 -20 189 -20q48 0 93.5 7.5t93 25.5t76.5 54t29 87z" />
    <glyph glyph-name="h" unicode="h" horiz-adv-x="1134" 
d="M94 1407h316v-530q98 104 282 104q143 0 249 -97.5t106 -258.5v-625h-316v535q0 71 -47 114t-113 43q-68 0 -113.5 -42.5t-45.5 -114.5v-535h-318v1407z" />
    <glyph glyph-name="i" unicode="i" horiz-adv-x="505" 
d="M94 961h316v-961h-316v961zM252 1083q-77 0 -124.5 48t-47.5 124t47.5 124t124.5 48q75 0 124.5 -48.5t49.5 -123.5t-49.5 -123.5t-124.5 -48.5z" />
    <glyph glyph-name="j" unicode="j" horiz-adv-x="501" 
d="M248 1083q-75 0 -123.5 48.5t-48.5 123.5t48.5 123.5t123.5 48.5q78 0 126 -48.5t48 -123.5t-48 -123.5t-126 -48.5zM-180 -377l26 248q70 -21 119 -21q127 0 127 140v968h316v-993q0 -95 -31.5 -170t-84.5 -121t-119 -70t-138 -24q-139 0 -215 43z" />
    <glyph glyph-name="k" unicode="k" horiz-adv-x="1124" 
d="M94 1407h316v-770h122l189 324h350l-291 -465l365 -496h-377l-246 360h-112v-360h-316v1407z" />
    <glyph glyph-name="l" unicode="l" horiz-adv-x="505" 
d="M94 1407h316v-1407h-316v1407z" />
    <glyph glyph-name="m" unicode="m" horiz-adv-x="1763" 
d="M1675 0h-313v535q0 72 -46 114.5t-112 42.5q-68 0 -115 -43t-47 -114v-535h-315v535q0 71 -46 114t-112 43t-112.5 -43t-46.5 -114v-535h-316v961h289l10 -103q49 60 126.5 91.5t170.5 31.5q102 0 184.5 -43t118.5 -119q55 78 140.5 120t183.5 42q95 0 175 -39.5
t131.5 -122t51.5 -194.5v-625z" />
    <glyph glyph-name="n" unicode="n" horiz-adv-x="1134" 
d="M1047 625v-625h-316v535q0 71 -48 114t-114 43t-112.5 -43t-46.5 -114v-535h-316v961h289l10 -103q49 60 126.5 91.5t170.5 31.5q144 0 250.5 -97.5t106.5 -258.5z" />
    <glyph glyph-name="o" unicode="o" horiz-adv-x="1136" 
d="M199 838q146 143 368 143q226 0 369 -143q147 -144 147 -359q0 -214 -147 -358q-144 -141 -369 -141q-221 0 -368 141q-148 145 -148 358q0 214 148 359zM715 639q-58 61 -148 61q-89 0 -147 -61q-55 -61 -55 -160q0 -96 55 -160q58 -61 147 -61q90 0 148 61
q57 63 57 160q0 100 -57 160z" />
    <glyph glyph-name="p" unicode="p" horiz-adv-x="1193" 
d="M410 72v-471h-316v1360h297l10 -103q95 123 291 123q202 0 324 -143q125 -140 125 -361q0 -218 -125 -358q-124 -139 -324 -139q-88 0 -163.5 24.5t-118.5 67.5zM610 698q-88 0 -146 -61.5t-58 -157.5t57.5 -156.5t146.5 -60.5q92 0 152.5 61.5t60.5 155.5q0 97 -60 158
t-153 61z" />
    <glyph glyph-name="q" unicode="q" horiz-adv-x="1193" 
d="M1100 961v-1360h-316v471q-43 -43 -118.5 -67.5t-163.5 -24.5q-199 0 -326 139q-123 141 -123 358q0 220 123 361q125 143 326 143q196 0 291 -123l10 103h297zM584 698q-93 0 -153 -61t-60 -158q0 -94 60.5 -155.5t152.5 -61.5q89 0 146.5 60.5t57.5 156.5t-58 157.5
t-146 61.5z" />
    <glyph glyph-name="r" unicode="r" horiz-adv-x="784" 
d="M391 961l10 -132q36 70 102.5 111t149.5 41q58 0 117 -20l-18 -277q-67 23 -121 23q-102 0 -161.5 -61.5t-59.5 -182.5v-463h-316v961h297z" />
    <glyph glyph-name="s" unicode="s" horiz-adv-x="913" 
d="M866 295q0 -146 -113.5 -230.5t-308.5 -84.5q-226 0 -374 65l30 250q71 -27 161.5 -45.5t156.5 -18.5q78 0 110.5 12.5t32.5 43.5q0 26 -27.5 40.5t-101.5 26.5l-88 15q-150 23 -220.5 93t-70.5 197q0 148 120 235t323 87q192 0 327 -63l-24 -244q-56 22 -135 35
q-94 16 -152 16q-158 0 -158 -63q0 -25 33.5 -40.5t114.5 -27.5l94 -16q137 -23 203.5 -92t66.5 -191z" />
    <glyph glyph-name="t" unicode="t" horiz-adv-x="831" 
d="M756 961v-259h-262v-309q0 -58 24 -91t69 -40.5t92.5 -2t111.5 21.5l22 -256q-116 -45 -256 -45q-178 0 -278.5 91t-100.5 271v360h-151v259h151v307h305v-307h273z" />
    <glyph glyph-name="u" unicode="u" horiz-adv-x="1105" 
d="M705 426v535h315v-560q0 -186 -131 -305q-128 -116 -340 -116q-213 0 -338 116t-125 299v566h315v-535q0 -71 42 -115.5t106 -44.5q70 0 113 43.5t43 116.5z" />
    <glyph glyph-name="v" unicode="v" horiz-adv-x="1138" 
d="M569 307l215 654h332l-352 -961h-389l-352 961h329z" />
    <glyph glyph-name="w" unicode="w" horiz-adv-x="1650" 
d="M514 328l188 612h246l187 -612l168 633h321l-283 -961h-368l-148 481l-147 -481h-369l-282 961h321z" />
    <glyph glyph-name="x" unicode="x" horiz-adv-x="1101" 
d="M733 0l-184 281l-182 -281h-347l345 489l-347 472h363l168 -254l166 254h360l-342 -472l350 -489h-350z" />
    <glyph glyph-name="y" unicode="y" horiz-adv-x="1138" 
d="M403 0l-385 961h351l202 -644l199 644h352l-444 -1102q-56 -138 -162 -208.5t-248 -70.5q-106 0 -207 49l43 248q58 -24 113 -24q69 0 117.5 37.5t68.5 109.5z" />
    <glyph glyph-name="z" unicode="z" horiz-adv-x="903" 
d="M858 0h-805v207l416 493h-416v261h774v-207l-411 -494h442v-260z" />
    <glyph glyph-name="braceleft" unicode="{" horiz-adv-x="784" 
d="M387 575q69 -39 99 -91t30 -138v-317q0 -120 41 -164.5t158 -44.5h35v-234q-64 -6 -132 -6q-92 0 -161.5 19.5t-115 54t-74 86.5t-40.5 112.5t-12 137.5v352q0 61 -22.5 87t-81.5 26h-88v241h88q58 0 81 27t23 86v367q0 96 19.5 166.5t65 123.5t125 80t193.5 27
q68 0 132 -6v-234h-35q-119 0 -160 -41q-39 -39 -39 -155v-332q0 -84 -30 -136t-99 -94z" />
    <glyph glyph-name="bar" unicode="|" horiz-adv-x="503" 
d="M109 1757h284v-2156h-284v2156z" />
    <glyph glyph-name="braceright" unicode="}" horiz-adv-x="784" 
d="M391 575q-69 42 -99 94t-30 136v319q0 120 -41 164.5t-158 44.5q-24 0 -34 -2v236q65 6 131 6q114 0 193.5 -29t124 -85.5t64 -128.5t19.5 -169v-352q0 -59 24.5 -86t82.5 -27h88v-241h-88q-59 0 -83 -26t-24 -87v-365q0 -96 -19.5 -166t-64 -124t-124 -81.5
t-193.5 -27.5q-66 0 -131 6v236q10 -2 34 -2q119 0 160 41q39 39 39 155v332q0 86 30 138t99 91z" />
    <glyph glyph-name="asciitilde" unicode="~" horiz-adv-x="1370" 
d="M223 381l-151 223q86 101 189.5 156t197.5 55q117 0 237 -67q122 -68 215 -68q71 0 125 33q55 35 113 84l151 -224q-86 -101 -189.5 -156t-197.5 -55q-59 0 -122.5 21t-109.5 47t-106 47t-114 21q-55 0 -110 -26t-128 -91z" />
    <glyph glyph-name="uni00A0" unicode="&#xa0;" horiz-adv-x="483" 
 />
    <glyph glyph-name="exclamdown" unicode="&#xa1;" horiz-adv-x="518" 
d="M143 553h228l59 -948h-344zM133 684q-49 51 -49 123.5t49 122.5q51 51 124.5 51t123.5 -51q51 -50 51 -122t-51 -122q-49 -49 -123 -49.5t-125 47.5z" />
    <glyph glyph-name="cent" unicode="&#xa2;" horiz-adv-x="966" 
d="M51 678q0 200 109.5 328t296.5 161l-15 248h256l-16 -241q94 -11 217 -60l-22 -266q-115 47 -238 47q-127 0 -199.5 -53t-72.5 -162q0 -100 71 -155.5t185 -55.5q70 0 126 15t132 51l30 -277q-132 -61 -237 -76l14 -239h-256l14 252q-180 38 -287.5 169t-107.5 314z" />
    <glyph glyph-name="sterling" unicode="&#xa3;" horiz-adv-x="1187" 
d="M272 594h-217v207h156q-21 76 -21 143q0 200 142 318q140 116 364 116q229 0 394 -71l-31 -271q-140 64 -314 64q-109 0 -168 -46.5t-59 -127.5q0 -58 33 -125h414v-207h-349q11 -75 11 -102q0 -68 -30 -119t-103 -109h643v-264h-1051v215q209 86 209 256q0 52 -23 123z
" />
    <glyph glyph-name="currency" unicode="&#xa4;" horiz-adv-x="1228" 
d="M1055 662q0 -122 -64 -220l172 -172l-164 -161l-172 174q-105 -54 -215 -54q-107 0 -209 54l-174 -174l-163 161l172 172q-62 103 -62 220q0 119 57 215l-167 165l163 162l166 -166q105 60 217 60q116 0 224 -60l163 166l164 -162l-168 -165q60 -105 60 -215zM612 483
q78 0 132.5 52.5t54.5 126.5q0 75 -54.5 129.5t-132.5 54.5q-73 0 -126.5 -54.5t-53.5 -129.5q0 -73 53 -126t127 -53z" />
    <glyph glyph-name="yen" unicode="&#xa5;" horiz-adv-x="1540" 
d="M938 0h-330v236h-284v172h284v88h-295v172h219l-501 690h393l352 -508l361 508h374l-499 -690h215v-172h-289v-88h279v-172h-279v-236z" />
    <glyph glyph-name="brokenbar" unicode="&#xa6;" horiz-adv-x="503" 
d="M109 1757h284v-848h-284v848zM109 449h284v-848h-284v848z" />
    <glyph glyph-name="section" unicode="&#xa7;" horiz-adv-x="1150" 
d="M1108 451q0 -175 -143 -306q26 -68 26 -133q0 -86 -38.5 -154.5t-103.5 -110t-145 -63.5t-167 -22q-100 0 -207 22t-189 62l25 250q83 -37 182 -58.5t174 -21.5q85 0 138 26.5t53 69.5q0 31 -20.5 49t-76.5 39q-210 77 -284 111q-94 46 -146 88q-140 101 -143 291
q0 174 143 305q-26 65 -26 131q0 85 38.5 154t103 111t144 64.5t166.5 22.5q99 0 207 -23t191 -63l-27 -248q-84 36 -182 57t-172 21q-86 0 -138.5 -26t-52.5 -70q0 -31 20 -48t77 -38q208 -77 282 -113q88 -40 148 -86q140 -103 143 -290zM629 616q-70 29 -262 101
q-52 -46 -52 -111q0 -56 47 -96.5t158 -85.5q45 -18 262 -100q54 48 54 108q0 58 -45.5 96t-161.5 88z" />
    <glyph glyph-name="dieresis" unicode="&#xa8;" horiz-adv-x="872" 
d="M625 1489q-67 0 -109.5 41.5t-42.5 107.5q0 68 42.5 111t109.5 43t109 -43t42 -111q0 -66 -42 -107.5t-109 -41.5zM246 1489q-67 0 -109.5 41.5t-42.5 107.5q0 68 42.5 111t109.5 43t110 -43t43 -111q0 -66 -42.5 -107.5t-110.5 -41.5z" />
    <glyph glyph-name="copyright" unicode="&#xa9;" horiz-adv-x="1570" 
d="M784 1378q143 0 276 -54t233 -145.5t160 -222.5t60 -276q3 -144 -57.5 -276t-161.5 -225.5t-235.5 -148t-274.5 -50.5q-143 0 -276.5 54t-232.5 146.5t-158.5 223.5t-59.5 276t60 276t159.5 223t232.5 146t275 53zM225 680q0 -150 76.5 -275t206.5 -198
q130 -69 277.5 -69t275.5 71q131 73 208 198.5t77 272.5q2 109 -45 211t-124.5 175.5t-181.5 117t-211 41.5q-107 3 -210.5 -41t-180.5 -118t-123.5 -176.5t-44.5 -209.5zM371 680q-2 112 58 206t156.5 145t202.5 48q126 0 234 -51l-14 -149q-109 41 -207 41
q-104 0 -176 -68t-72 -170q0 -106 72 -174t182 -68q109 0 217 54l14 -152q-133 -59 -250 -59q-109 0 -204 49t-154 141.5t-59 206.5z" />
    <glyph glyph-name="ordfeminine" unicode="&#xaa;" horiz-adv-x="768" 
d="M678 635v-156h-582v156h582zM137 1153l-18 168q39 22 110.5 39.5t145.5 17.5q144 0 223.5 -60.5t79.5 -180.5v-396h-195l-10 68q-26 -37 -78 -59.5t-112 -22.5q-87 0 -142 50.5t-55 135.5q0 97 74 146t205 49q63 0 106 -14v16q0 50 -31 70t-100 20q-54 0 -112 -14
t-91 -33zM362 877q42 0 73.5 22.5t31.5 61.5v26q-38 10 -78 10q-96 0 -96 -59q0 -61 69 -61z" />
    <glyph glyph-name="guillemotleft" unicode="&#xab;" horiz-adv-x="1052" 
d="M743 479l254 -393h-260l-272 393l272 395h260zM328 479l254 -393h-260l-273 393l273 395h260z" />
    <glyph glyph-name="logicalnot" unicode="&#xac;" horiz-adv-x="1261" 
d="M1182 365h-328v346h-795v282h1123v-628z" />
    <glyph glyph-name="uni00AD" unicode="&#xad;" horiz-adv-x="813" 
d="M82 668h649v-244h-649v244z" />
    <glyph glyph-name="registered" unicode="&#xae;" horiz-adv-x="1175" 
d="M49 1047q0 221 156 368q157 148 381 148q141 3 267 -66t202 -190t73 -260q0 -148 -72.5 -267.5t-196.5 -185.5t-273 -66q-142 -3 -266 63.5t-198.5 187.5t-72.5 268zM182 1047q0 -170 115 -279q115 -106 289 -106q176 0 291 106q118 106 118 279q0 166 -121 278
q-120 111 -288 111q-170 0 -287 -111t-117 -278zM573 936h-77v-150h-138v529h250q87 0 145 -53.5t58 -137.5q0 -49 -26.5 -92.5t-69.5 -68.5l135 -177h-164zM590 1196h-94v-143h94q35 0 56.5 20t21.5 51q0 32 -21.5 52t-56.5 20z" />
    <glyph glyph-name="overscore" unicode="&#xaf;" horiz-adv-x="782" 
d="M96 1706h590v-205h-590v205z" />
    <glyph glyph-name="degree" unicode="&#xb0;" horiz-adv-x="823" 
d="M53 1026q0 151 101 252q100 100 256 100t256 -100q102 -102 102 -252q0 -148 -102 -250q-101 -98 -256 -98t-256 98q-101 101 -101 250zM270 1026q0 -60 40 -100.5t100 -40.5q61 0 100 40t39 101q0 62 -39 103.5t-100 41.5q-60 0 -100 -41.5t-40 -103.5z" />
    <glyph glyph-name="plusminus" unicode="&#xb1;" horiz-adv-x="1234" 
d="M76 274h1083v-274h-1083v274zM778 430h-323v328h-379v282h379v318h323v-318h379v-282h-379v-328z" />
    <glyph glyph-name="twosuperior" unicode="&#xb2;" horiz-adv-x="686" 
d="M338 737h307v-184h-600v156l270 233q91 82 91 158q0 92 -123 92q-47 0 -107.5 -17t-97.5 -38l-27 182q127 59 252 59q65 0 120 -14t101 -44t72.5 -83t26.5 -125q0 -92 -58 -168q-63 -82 -227 -207z" />
    <glyph glyph-name="threesuperior" unicode="&#xb3;" horiz-adv-x="710" 
d="M201 877v133l164 164h-287v184h553v-154l-189 -180q103 -12 165.5 -75t62.5 -156q0 -72 -28 -124.5t-77.5 -81.5t-109 -42t-131.5 -13q-158 0 -285 62l20 182q115 -59 250 -59q148 0 148 82q0 86 -160 86q-49 0 -96 -8z" />
    <glyph glyph-name="acute" unicode="&#xb4;" horiz-adv-x="716" 
d="M258 1806h363l-265 -333h-260z" />
    <glyph glyph-name="mu" unicode="&#xb5;" horiz-adv-x="1163" 
d="M104 -399v1360h316v-535q0 -72 47 -115t113 -43q69 0 116 43t47 115v535h316v-961h-289l-10 100q-70 -108 -203 -108q-86 0 -137 39v-430h-316z" />
    <glyph glyph-name="paragraph" unicode="&#xb6;" horiz-adv-x="1345" 
d="M547 1358h729v-213h-440v-1544h-220v805h-69q-219 0 -363.5 133.5t-144.5 343.5t144.5 342.5t363.5 132.5zM1169 1028v-1427h-215v1427h215z" />
    <glyph glyph-name="middot" unicode="&#xb7;" horiz-adv-x="507" 
d="M129 391q-49 49 -49 123t49 123t124 49t124 -49q51 -49 51 -123t-51 -123q-49 -49 -124 -49t-124 49z" />
    <glyph glyph-name="cedilla" unicode="&#xb8;" horiz-adv-x="651" 
d="M211 -178h-74l82 205h164l-33 -109q106 -13 161.5 -64.5t55.5 -125.5q0 -92 -89 -148.5t-232 -56.5q-100 0 -164 31v153q62 -18 131 -18q81 -6 110 37q22 33 -5 64q-33 37 -107 32z" />
    <glyph glyph-name="onesuperior" unicode="&#xb9;" horiz-adv-x="497" 
d="M422 545h-211v629h-186v184h397v-813z" />
    <glyph glyph-name="ordmasculine" unicode="&#xba;" horiz-adv-x="831" 
d="M84 1051q0 142 94 233q94 94 236 94q143 0 237 -94q97 -94 97 -233q0 -138 -97 -232q-95 -92 -237 -92q-141 0 -236 92q-94 91 -94 232zM285 1051q0 -56 37 -93.5t92 -37.5q56 0 92.5 37.5t36.5 93.5q0 58 -36.5 96.5t-92.5 38.5q-55 0 -92 -39t-37 -96zM727 635v-156
h-623v156h623z" />
    <glyph glyph-name="guillemotright" unicode="&#xbb;" horiz-adv-x="1052" 
d="M55 874h260l273 -395l-273 -393h-260l254 393zM471 874h260l273 -395l-273 -393h-260l254 393z" />
    <glyph glyph-name="onequarter" unicode="&#xbc;" horiz-adv-x="1517" 
d="M1112 813h217l-235 -459h168v158h192v-158h111v-180h-111v-174h-199v174h-389v148zM477 0h-168v27l735 1331h164v-25zM440 545h-211v629h-186v184h397v-813z" />
    <glyph glyph-name="onehalf" unicode="&#xbd;" horiz-adv-x="1638" 
d="M477 0h-168v27l735 1331h164v-25zM440 545h-211v629h-186v184h397v-813zM1313 184h307v-184h-600v156l268 233q90 81 90 160q0 90 -121 90q-49 0 -108 -16t-98 -37l-27 182q123 57 254 57q52 0 97 -8.5t86 -28t70.5 -49.5t46.5 -75.5t17 -102.5q0 -95 -57 -170
q-53 -73 -225 -207z" />
    <glyph glyph-name="threequarters" unicode="&#xbe;" horiz-adv-x="1722" 
d="M643 0h-166v27l733 1331h166v-25zM221 874v136l164 164h-289v184h555v-156l-188 -178q101 -12 164 -76t63 -157q0 -71 -28 -123t-77.5 -81t-109 -42t-131.5 -13q-155 0 -287 60l23 182q111 -57 250 -57q145 0 145 80q0 45 -43.5 66.5t-114.5 21.5q-32 0 -96 -11z
M1274 813h219l-238 -459h168v158h193v-158h110v-180h-110v-174h-199v174h-389v148z" />
    <glyph glyph-name="questiondown" unicode="&#xbf;" horiz-adv-x="985" 
d="M414 426l26 162h252l27 -256l-62 -37q-18 -12 -57.5 -36.5t-67.5 -43.5q-141 -90 -141 -197q0 -155 203 -155q87 0 172 26q87 23 145 56l41 -267q-187 -96 -399 -96q-103 0 -191.5 22t-161.5 68t-115 125t-42 183q0 147 100 253q52 52 111.5 94t159.5 99zM442 684
q-51 51 -51.5 124t49.5 122q51 51 125 51t125 -51q51 -50 51 -122t-51 -122q-51 -49 -125 -49.5t-123 47.5z" />
    <glyph glyph-name="Agrave" unicode="&#xc0;" horiz-adv-x="1482" 
d="M741 1028l-192 -522h387zM1120 0l-92 250h-573l-93 -250h-352l537 1358h389l537 -1358h-353zM870 1473h-260l-264 333h363z" />
    <glyph glyph-name="Aacute" unicode="&#xc1;" horiz-adv-x="1482" 
d="M741 1028l-192 -522h387zM1120 0l-92 250h-573l-93 -250h-352l537 1358h389l537 -1358h-353zM774 1806h363l-265 -333h-260z" />
    <glyph glyph-name="Acircumflex" unicode="&#xc2;" horiz-adv-x="1482" 
d="M741 1028l-192 -522h387zM1120 0l-92 250h-573l-93 -250h-352l537 1358h389l537 -1358h-353zM840 1841l286 -371h-264l-121 170l-120 -170h-265l287 371h197z" />
    <glyph glyph-name="Atilde" unicode="&#xc3;" horiz-adv-x="1482" 
d="M741 1028l-192 -522h387zM1120 0l-92 250h-573l-93 -250h-352l537 1358h389l537 -1358h-353zM483 1493l-114 104q112 207 258 207q43 0 137 -49q96 -47 123 -47q56 0 112 86l115 -104q-109 -207 -258 -207q-47 0 -133 47q-85 49 -127 49q-48 0 -113 -86z" />
    <glyph glyph-name="Adieresis" unicode="&#xc4;" horiz-adv-x="1482" 
d="M741 1028l-192 -522h387zM1120 0l-92 250h-573l-93 -250h-352l537 1358h389l537 -1358h-353zM930 1489q-67 0 -109.5 41.5t-42.5 107.5q0 68 42.5 111t109.5 43t110 -43t43 -111q0 -66 -42.5 -107.5t-110.5 -41.5zM553 1489q-67 0 -109.5 41.5t-42.5 107.5q0 68 42.5 111
t109.5 43t109.5 -43t42.5 -111q0 -66 -42.5 -107.5t-109.5 -41.5z" />
    <glyph glyph-name="Aring" unicode="&#xc5;" horiz-adv-x="1482" 
d="M741 1028l-192 -522h387zM1120 0l-92 250h-573l-93 -250h-352l537 1358h389l537 -1358h-353zM518 1692q0 94 63.5 156.5t159.5 62.5q98 0 161 -62.5t63 -156.5t-63 -155.5t-161 -61.5q-97 0 -160 61.5t-63 155.5zM680 1692q0 -27 17.5 -45.5t43.5 -18.5t44 19t18 45
q0 40 -30.5 56t-61.5 0t-31 -56z" />
    <glyph glyph-name="AE" unicode="&#xc6;" horiz-adv-x="2021" 
d="M1278 276h684v-276h-1014v250h-479l-143 -250h-385l823 1358h1190v-277h-676v-252h596v-276h-596v-277zM948 506v575l-332 -575h332z" />
    <glyph glyph-name="Ccedilla" unicode="&#xc7;" horiz-adv-x="1341" 
d="M709 -178h-74l65 166q-134 15 -251 71t-203.5 144.5t-136.5 211.5t-50 263q0 136 43 251t117.5 196.5t174.5 139.5t215 85.5t239 27.5q221 0 428 -92l-23 -287q-160 80 -358 80q-99 0 -186 -22.5t-158.5 -68.5t-113.5 -124.5t-42 -181.5q0 -187 129 -301
q131 -113 334 -113q229 0 397 107l45 -281q-208 -103 -434 -112l-18 -64q106 -13 161.5 -64.5t55.5 -125.5q0 -92 -89.5 -148.5t-232.5 -56.5q-99 0 -163 31v153q62 -18 131 -18q82 -6 111 37q22 34 -6 65q-32 37 -107 31z" />
    <glyph glyph-name="Egrave" unicode="&#xc8;" horiz-adv-x="1206" 
d="M442 276h707v-276h-1036v1358h1026v-277h-697v-252h617v-276h-617v-277zM760 1473h-260l-264 333h362z" />
    <glyph glyph-name="Eacute" unicode="&#xc9;" horiz-adv-x="1206" 
d="M442 276h707v-276h-1036v1358h1026v-277h-697v-252h617v-276h-617v-277zM664 1806h360l-262 -333h-260z" />
    <glyph glyph-name="Ecircumflex" unicode="&#xca;" horiz-adv-x="1206" 
d="M442 276h707v-276h-1036v1358h1026v-277h-697v-252h617v-276h-617v-277zM729 1841l287 -371h-264l-121 170l-121 -170h-264l286 371h197z" />
    <glyph glyph-name="Edieresis" unicode="&#xcb;" horiz-adv-x="1206" 
d="M442 276h707v-276h-1036v1358h1026v-277h-697v-252h617v-276h-617v-277zM819 1489q-67 0 -109 41.5t-42 107.5q0 68 42 111t109 43t110.5 -43t43.5 -111q0 -66 -43 -107.5t-111 -41.5zM440 1489q-66 0 -107.5 41.5t-41.5 107.5q0 68 41.5 111t107.5 43q69 0 111.5 -43
t42.5 -111q0 -66 -42.5 -107.5t-111.5 -41.5z" />
    <glyph glyph-name="Igrave" unicode="&#xcc;" horiz-adv-x="555" 
d="M113 1358h329v-1358h-329v1358zM408 1473h-263l-262 333h363z" />
    <glyph glyph-name="Iacute" unicode="&#xcd;" horiz-adv-x="555" 
d="M113 1358h329v-1358h-329v1358zM309 1806h363l-262 -333h-263z" />
    <glyph glyph-name="Icircumflex" unicode="&#xce;" horiz-adv-x="555" 
d="M113 1358h329v-1358h-329v1358zM377 1841l287 -371h-265l-120 170l-121 -170h-264l286 371h197z" />
    <glyph glyph-name="Idieresis" unicode="&#xcf;" horiz-adv-x="555" 
d="M113 1358h329v-1358h-329v1358zM467 1489q-67 0 -109.5 41.5t-42.5 107.5q0 68 42.5 111t109.5 43t109 -43t42 -111q0 -66 -42 -107.5t-109 -41.5zM88 1489q-67 0 -109 41.5t-42 107.5q0 68 42 111t109 43q68 0 111 -43t43 -111q0 -66 -43 -107.5t-111 -41.5z" />
    <glyph glyph-name="Eth" unicode="&#xd0;" horiz-adv-x="1521" 
d="M764 0h-594v604h-133v184h133v570h594q328 0 512 -178t184 -498t-188 -502q-186 -180 -508 -180zM735 1081h-237v-293h346v-184h-346v-328h237q194 0 290.5 103.5t96.5 302.5q0 399 -387 399z" />
    <glyph glyph-name="Ntilde" unicode="&#xd1;" horiz-adv-x="1529" 
d="M1133 0l-691 819v-819h-329v1358h280l694 -828v828h330v-1358h-284zM487 1493l-114 104q109 207 258 207q43 0 137 -49q96 -47 123 -47q54 0 113 86l114 -104q-112 -207 -260 -207q-47 0 -133 47q-85 49 -127 49q-46 0 -111 -86z" />
    <glyph glyph-name="Ograve" unicode="&#xd2;" horiz-adv-x="1562" 
d="M59 682q-2 149 52 279.5t149.5 222.5t231 144t290.5 50q208 3 374 -87t258 -251t89 -360q3 -201 -89 -362t-258 -250.5t-374 -87.5q-319 0 -522 194q-201 198 -201 508zM393 680q0 -175 109 -287q107 -110 284 -110q171 0 275 110q106 109 106 287q0 177 -106 283
q-104 110 -275 110q-177 0 -284 -110q-109 -109 -109 -283zM915 1473h-260l-264 333h363z" />
    <glyph glyph-name="Oacute" unicode="&#xd3;" horiz-adv-x="1562" 
d="M59 682q-2 149 52 279.5t149.5 222.5t231 144t290.5 50q208 3 374 -87t258 -251t89 -360q3 -201 -89 -362t-258 -250.5t-374 -87.5q-319 0 -522 194q-201 198 -201 508zM393 680q0 -175 109 -287q107 -110 284 -110q171 0 275 110q106 109 106 287q0 177 -106 283
q-104 110 -275 110q-177 0 -284 -110q-109 -109 -109 -283zM819 1806h363l-264 -333h-261z" />
    <glyph glyph-name="Ocircumflex" unicode="&#xd4;" horiz-adv-x="1562" 
d="M59 682q-2 149 52 279.5t149.5 222.5t231 144t290.5 50q208 3 374 -87t258 -251t89 -360q3 -201 -89 -362t-258 -250.5t-374 -87.5q-319 0 -522 194q-201 198 -201 508zM393 680q0 -175 109 -287q107 -110 284 -110q171 0 275 110q106 109 106 287q0 177 -106 283
q-104 110 -275 110q-177 0 -284 -110q-109 -109 -109 -283zM885 1841l286 -371h-264l-121 170l-120 -170h-265l287 371h197z" />
    <glyph glyph-name="Otilde" unicode="&#xd5;" horiz-adv-x="1562" 
d="M59 682q-2 149 52 279.5t149.5 222.5t231 144t290.5 50q208 3 374 -87t258 -251t89 -360q3 -201 -89 -362t-258 -250.5t-374 -87.5q-319 0 -522 194q-201 198 -201 508zM393 680q0 -175 109 -287q107 -110 284 -110q171 0 275 110q106 109 106 287q0 177 -106 283
q-104 110 -275 110q-177 0 -284 -110q-109 -109 -109 -283zM528 1493l-114 104q112 207 258 207q43 0 137 -49q96 -47 123 -47q56 0 112 86l115 -104q-109 -207 -258 -207q-47 0 -133 47q-85 49 -127 49q-48 0 -113 -86z" />
    <glyph glyph-name="Odieresis" unicode="&#xd6;" horiz-adv-x="1562" 
d="M59 682q-2 149 52 279.5t149.5 222.5t231 144t290.5 50q208 3 374 -87t258 -251t89 -360q3 -201 -89 -362t-258 -250.5t-374 -87.5q-319 0 -522 194q-201 198 -201 508zM393 680q0 -175 109 -287q107 -110 284 -110q171 0 275 110q106 109 106 287q0 177 -106 283
q-104 110 -275 110q-177 0 -284 -110q-109 -109 -109 -283zM975 1489q-67 0 -109.5 41.5t-42.5 107.5q0 68 42.5 111t109.5 43t110 -43t43 -111q0 -66 -42.5 -107.5t-110.5 -41.5zM598 1489q-67 0 -109.5 41.5t-42.5 107.5q0 68 42.5 111t109.5 43t109.5 -43t42.5 -111
q0 -66 -42.5 -107.5t-109.5 -41.5z" />
    <glyph glyph-name="multiply" unicode="&#xd7;" horiz-adv-x="1214" 
d="M279 135l-216 215l328 330l-328 328l216 215l327 -330l330 330l215 -215l-330 -328l330 -330l-215 -215l-330 330z" />
    <glyph glyph-name="Oslash" unicode="&#xd8;" horiz-adv-x="1562" 
d="M59 682q-2 149 52 279.5t149.5 222.5t231 144t290.5 50q181 0 330 -67l145 207l150 -105l-137 -201q112 -95 172.5 -231.5t60.5 -300.5q3 -201 -89 -362t-258 -250.5t-374 -87.5q-184 0 -325 63l-142 -203l-151 105l135 194q-116 98 -178 236t-62 307zM393 680
q0 -163 94 -270l443 639q-68 24 -144 24q-177 0 -284 -110q-109 -109 -109 -283zM1167 680q0 153 -86 262l-442 -635q67 -24 147 -24q171 0 275 110q106 109 106 287z" />
    <glyph glyph-name="Ugrave" unicode="&#xd9;" horiz-adv-x="1406" 
d="M104 489v869h330v-850q0 -120 71.5 -182t196.5 -62q127 0 199 62.5t72 181.5v850h330v-869q0 -104 -32.5 -190t-88.5 -144.5t-132.5 -98.5t-163.5 -58t-184 -18q-173 0 -305.5 54t-212.5 170.5t-80 284.5zM831 1473h-260l-264 333h363z" />
    <glyph glyph-name="Uacute" unicode="&#xda;" horiz-adv-x="1406" 
d="M104 489v869h330v-850q0 -120 71.5 -182t196.5 -62q127 0 199 62.5t72 181.5v850h330v-869q0 -104 -32.5 -190t-88.5 -144.5t-132.5 -98.5t-163.5 -58t-184 -18q-173 0 -305.5 54t-212.5 170.5t-80 284.5zM735 1806h363l-264 -333h-261z" />
    <glyph glyph-name="Ucircumflex" unicode="&#xdb;" horiz-adv-x="1406" 
d="M104 489v869h330v-850q0 -120 71.5 -182t196.5 -62q127 0 199 62.5t72 181.5v850h330v-869q0 -104 -32.5 -190t-88.5 -144.5t-132.5 -98.5t-163.5 -58t-184 -18q-173 0 -305.5 54t-212.5 170.5t-80 284.5zM801 1841l286 -371h-264l-121 170l-120 -170h-265l287 371h197z
" />
    <glyph glyph-name="Udieresis" unicode="&#xdc;" horiz-adv-x="1406" 
d="M104 489v869h330v-850q0 -120 71.5 -182t196.5 -62q127 0 199 62.5t72 181.5v850h330v-869q0 -104 -32.5 -190t-88.5 -144.5t-132.5 -98.5t-163.5 -58t-184 -18q-173 0 -305.5 54t-212.5 170.5t-80 284.5zM891 1489q-67 0 -109.5 41.5t-42.5 107.5q0 68 42.5 111
t109.5 43t110 -43t43 -111q0 -66 -42.5 -107.5t-110.5 -41.5zM512 1489q-66 0 -108 41.5t-42 107.5q0 68 42 111t108 43q69 0 111.5 -43t42.5 -111q0 -66 -42.5 -107.5t-111.5 -41.5z" />
    <glyph glyph-name="Yacute" unicode="&#xdd;" horiz-adv-x="1501" 
d="M918 0h-330v506l-578 852h393l355 -518l358 518h375l-573 -852v-506zM784 1806h363l-264 -333h-260z" />
    <glyph glyph-name="Thorn" unicode="&#xde;" horiz-adv-x="1378" 
d="M791 186h-351v-186h-327v1358h327v-178h351q244 0 388 -132t144 -364q0 -233 -147 -365q-145 -133 -385 -133zM735 903h-295v-440h295q123 0 186.5 56t63.5 165q0 219 -250 219z" />
    <glyph glyph-name="germandbls" unicode="&#xdf;" horiz-adv-x="1335" 
d="M592 551v242q42 2 81.5 12t77 31t60.5 59t23 88q0 73 -57 114.5t-150 41.5q-92 0 -154.5 -51t-62.5 -138v-950h-316v993q0 188 154 312q155 122 391 122q252 0 395 -110q146 -113 146 -291q0 -196 -170 -291q129 -31 200.5 -124t71.5 -228q0 -58 -16 -113.5t-53 -108.5
t-91.5 -93t-138.5 -64t-186 -24q-142 0 -271 38l35 267q102 -31 195 -31q85 0 137.5 39t52.5 104q0 79 -66.5 119.5t-191.5 40.5q-46 0 -82 -4z" />
    <glyph glyph-name="agrave" unicode="&#xe0;" horiz-adv-x="1191" 
d="M1096 961v-961h-305l-11 100q-99 -120 -282 -120q-194 0 -320 141q-125 143 -125 358q0 216 125 359t320 143q183 0 282 -123l11 103h305zM573 700q-91 0 -149 -61q-57 -60 -57 -160t57 -160q58 -61 147 -61q92 0 150.5 61.5t58.5 159.5q0 97 -57.5 158.5t-149.5 62.5z
M688 1075h-262l-262 334h362z" />
    <glyph glyph-name="aacute" unicode="&#xe1;" horiz-adv-x="1191" 
d="M1096 961v-961h-305l-11 100q-99 -120 -282 -120q-194 0 -320 141q-125 143 -125 358q0 216 125 359t320 143q183 0 282 -123l11 103h305zM573 700q-91 0 -149 -61q-57 -60 -57 -160t57 -160q58 -61 147 -61q92 0 150.5 61.5t58.5 159.5q0 97 -57.5 158.5t-149.5 62.5z
M592 1409h360l-262 -334h-262z" />
    <glyph glyph-name="acircumflex" unicode="&#xe2;" horiz-adv-x="1191" 
d="M1096 961v-961h-305l-11 100q-99 -120 -282 -120q-194 0 -320 141q-125 143 -125 358q0 216 125 359t320 143q183 0 282 -123l11 103h305zM573 700q-91 0 -149 -61q-57 -60 -57 -160t57 -160q58 -61 147 -61q92 0 150.5 61.5t58.5 159.5q0 97 -57.5 158.5t-149.5 62.5z
M657 1444l287 -371h-264l-121 168l-121 -168h-264l287 371h196z" />
    <glyph glyph-name="atilde" unicode="&#xe3;" horiz-adv-x="1191" 
d="M1096 961v-961h-305l-11 100q-99 -120 -282 -120q-194 0 -320 141q-125 143 -125 358q0 216 125 359t320 143q183 0 282 -123l11 103h305zM573 700q-91 0 -149 -61q-57 -60 -57 -160t57 -160q58 -61 147 -61q92 0 150.5 61.5t58.5 159.5q0 97 -57.5 158.5t-149.5 62.5z
M301 1096l-115 102q111 209 258 209q44 0 138 -49q96 -47 123 -47q56 0 112 86l115 -105q-112 -207 -258 -207q-47 0 -135 48q-85 49 -125 49q-48 0 -113 -86z" />
    <glyph glyph-name="adieresis" unicode="&#xe4;" horiz-adv-x="1191" 
d="M1096 961v-961h-305l-11 100q-99 -120 -282 -120q-194 0 -320 141q-125 143 -125 358q0 216 125 359t320 143q183 0 282 -123l11 103h305zM573 700q-91 0 -149 -61q-57 -60 -57 -160t57 -160q58 -61 147 -61q92 0 150.5 61.5t58.5 159.5q0 97 -57.5 158.5t-149.5 62.5z
M748 1090q-68 0 -110 42t-42 109t42 109.5t110 42.5q67 0 109 -42t42 -110q0 -67 -41.5 -109t-109.5 -42zM369 1090q-68 0 -110 42t-42 109t42.5 109.5t109.5 42.5q68 0 110.5 -42.5t42.5 -109.5t-42.5 -109t-110.5 -42z" />
    <glyph glyph-name="aring" unicode="&#xe5;" horiz-adv-x="1191" 
d="M1096 961v-961h-305l-11 100q-99 -120 -282 -120q-194 0 -320 141q-125 143 -125 358q0 216 125 359t320 143q183 0 282 -123l11 103h305zM573 700q-91 0 -149 -61q-57 -60 -57 -160t57 -160q58 -61 147 -61q92 0 150.5 61.5t58.5 159.5q0 97 -57.5 158.5t-149.5 62.5z
M336 1292q0 97 63 159t160 62t160 -62t63 -159q0 -94 -63 -155.5t-160 -61.5t-160 61.5t-63 155.5zM498 1292q0 -25 17.5 -43t43.5 -18t44 18t18 43q0 31 -19 49t-42.5 18t-42.5 -18t-19 -49z" />
    <glyph glyph-name="ae" unicode="&#xe6;" horiz-adv-x="1642" 
d="M1516 301l43 -235q-65 -37 -161.5 -61.5t-195.5 -24.5q-292 0 -430 170q-132 -170 -362 -170q-96 0 -177.5 32t-133.5 98t-52 154q0 149 114 224t316 75q111 0 187 -18v22q0 76 -56 109t-170 33q-79 0 -166.5 -22.5t-144.5 -51.5l-29 258q65 35 173 61.5t223 26.5
q227 0 340 -98q116 98 292 98q84 0 159 -22.5t138.5 -68.5t104.5 -115.5t56.5 -163.5t-5.5 -212h-633q12 -75 81.5 -114t176.5 -39q89 0 176.5 15.5t135.5 39.5zM485 217q67 0 123 35.5t56 93.5v39q-56 16 -138 16q-68 0 -108.5 -23t-40.5 -71q0 -43 28.5 -66.5t79.5 -23.5z
M948 584h350q0 62 -45 103.5t-118 41.5q-80 0 -130.5 -40.5t-56.5 -104.5z" />
    <glyph glyph-name="ccedilla" unicode="&#xe7;" horiz-adv-x="954" 
d="M463 -178h-74l68 172q-184 38 -293 168q-111 132 -111 315q0 160 71.5 276t190 172t269.5 56q158 0 315 -66l-22 -268q-115 47 -238 47q-125 0 -197.5 -52t-72.5 -163q0 -98 70.5 -154.5t183.5 -56.5q72 0 127 15t131 53l30 -277q-151 -74 -290 -77l-19 -64
q106 -13 161.5 -64.5t55.5 -125.5q0 -92 -89 -148.5t-232 -56.5q-100 0 -164 31v153q62 -18 131 -18q81 -6 110 37q22 33 -5 64q-32 38 -107 32z" />
    <glyph glyph-name="egrave" unicode="&#xe8;" horiz-adv-x="1067" 
d="M360 584h359q0 61 -47 103t-121 42q-83 0 -134 -40t-57 -105zM938 301l43 -235q-65 -37 -162 -61.5t-196 -24.5q-268 0 -418 135q-152 140 -152 364q0 226 137 363q139 139 355 139q108 0 199.5 -36.5t158 -105.5t94 -183t2.5 -257h-639q10 -75 82 -114t183 -39
q89 0 175.5 15.5t137.5 39.5zM682 1075h-260l-264 334h362z" />
    <glyph glyph-name="eacute" unicode="&#xe9;" horiz-adv-x="1067" 
d="M360 584h359q0 61 -47 103t-121 42q-83 0 -134 -40t-57 -105zM938 301l43 -235q-65 -37 -162 -61.5t-196 -24.5q-268 0 -418 135q-152 140 -152 364q0 226 137 363q139 139 355 139q108 0 199.5 -36.5t158 -105.5t94 -183t2.5 -257h-639q10 -75 82 -114t183 -39
q89 0 175.5 15.5t137.5 39.5zM586 1409h360l-262 -334h-260z" />
    <glyph glyph-name="ecircumflex" unicode="&#xea;" horiz-adv-x="1067" 
d="M360 584h359q0 61 -47 103t-121 42q-83 0 -134 -40t-57 -105zM938 301l43 -235q-65 -37 -162 -61.5t-196 -24.5q-268 0 -418 135q-152 140 -152 364q0 226 137 363q139 139 355 139q108 0 199.5 -36.5t158 -105.5t94 -183t2.5 -257h-639q10 -75 82 -114t183 -39
q89 0 175.5 15.5t137.5 39.5zM651 1444l287 -371h-264l-121 168l-121 -168h-264l287 371h196z" />
    <glyph glyph-name="edieresis" unicode="&#xeb;" horiz-adv-x="1067" 
d="M360 584h359q0 61 -47 103t-121 42q-83 0 -134 -40t-57 -105zM938 301l43 -235q-65 -37 -162 -61.5t-196 -24.5q-268 0 -418 135q-152 140 -152 364q0 226 137 363q139 139 355 139q108 0 199.5 -36.5t158 -105.5t94 -183t2.5 -257h-639q10 -75 82 -114t183 -39
q89 0 175.5 15.5t137.5 39.5zM741 1090q-67 0 -109 42t-42 109q0 68 42 110t109 42q68 0 111 -42.5t43 -109.5t-43 -109t-111 -42zM362 1090q-66 0 -107.5 42t-41.5 109t41.5 109.5t107.5 42.5q68 0 111 -42.5t43 -109.5t-43 -109t-111 -42z" />
    <glyph glyph-name="igrave" unicode="&#xec;" horiz-adv-x="505" 
d="M94 961h316v-961h-316v961zM383 1075h-262l-262 334h360z" />
    <glyph glyph-name="iacute" unicode="&#xed;" horiz-adv-x="505" 
d="M94 961h316v-961h-316v961zM285 1409h362l-264 -334h-260z" />
    <glyph glyph-name="icircumflex" unicode="&#xee;" horiz-adv-x="505" 
d="M94 961h316v-961h-316v961zM350 1444l289 -371h-264l-121 168l-123 -168h-262l287 371h194z" />
    <glyph glyph-name="idieresis" unicode="&#xef;" horiz-adv-x="505" 
d="M94 961h316v-961h-316v961zM440 1090q-66 0 -107.5 42t-41.5 109t41.5 109.5t107.5 42.5q69 0 111.5 -42t42.5 -110t-42.5 -109.5t-111.5 -41.5zM63 1090q-67 0 -109 42t-42 109q0 68 42 110t109 42t109.5 -42.5t42.5 -109.5t-42 -109t-110 -42z" />
    <glyph glyph-name="eth" unicode="&#xf0;" horiz-adv-x="1138" 
d="M805 1518l92 -138l-156 -116q334 -273 334 -727q0 -249 -143 -404q-144 -153 -373 -153q-224 0 -364 131q-140 134 -140 344q0 199 123 325q125 125 324 125q89 0 156.5 -30t105.5 -82q-52 184 -238 311l-198 -148l-97 138l138 100q-36 19 -152 66l145 221
q138 -55 236 -115zM563 643q-85 0 -135.5 -51.5t-50.5 -136.5q0 -87 51 -141t135 -54t136.5 54t52.5 141q0 85 -52 136.5t-137 51.5z" />
    <glyph glyph-name="ntilde" unicode="&#xf1;" horiz-adv-x="1134" 
d="M1047 625v-625h-316v535q0 71 -48 114t-114 43t-112.5 -43t-46.5 -114v-535h-316v961h289l10 -103q49 60 126.5 91.5t170.5 31.5q144 0 250.5 -97.5t106.5 -258.5zM328 1096l-115 102q108 209 256 209q43 0 137 -49q96 -47 123 -47q56 0 115 86l114 -105
q-112 -207 -260 -207q-45 0 -133 48q-85 49 -127 49q-48 0 -110 -86z" />
    <glyph glyph-name="ograve" unicode="&#xf2;" horiz-adv-x="1136" 
d="M199 838q146 143 368 143q226 0 369 -143q147 -144 147 -359q0 -214 -147 -358q-144 -141 -369 -141q-221 0 -368 141q-148 145 -148 358q0 214 148 359zM715 639q-58 61 -148 61q-89 0 -147 -61q-55 -61 -55 -160q0 -96 55 -160q58 -61 147 -61q90 0 148 61
q57 63 57 160q0 100 -57 160zM696 1075h-260l-264 334h363z" />
    <glyph glyph-name="oacute" unicode="&#xf3;" horiz-adv-x="1136" 
d="M199 838q146 143 368 143q226 0 369 -143q147 -144 147 -359q0 -214 -147 -358q-144 -141 -369 -141q-221 0 -368 141q-148 145 -148 358q0 214 148 359zM715 639q-58 61 -148 61q-89 0 -147 -61q-55 -61 -55 -160q0 -96 55 -160q58 -61 147 -61q90 0 148 61
q57 63 57 160q0 100 -57 160zM600 1409h363l-265 -334h-260z" />
    <glyph glyph-name="ocircumflex" unicode="&#xf4;" horiz-adv-x="1136" 
d="M199 838q146 143 368 143q226 0 369 -143q147 -144 147 -359q0 -214 -147 -358q-144 -141 -369 -141q-221 0 -368 141q-148 145 -148 358q0 214 148 359zM715 639q-58 61 -148 61q-89 0 -147 -61q-55 -61 -55 -160q0 -96 55 -160q58 -61 147 -61q90 0 148 61
q57 63 57 160q0 100 -57 160zM666 1444l286 -371h-264l-121 168l-121 -168h-264l287 371h197z" />
    <glyph glyph-name="otilde" unicode="&#xf5;" horiz-adv-x="1136" 
d="M199 838q146 143 368 143q226 0 369 -143q147 -144 147 -359q0 -214 -147 -358q-144 -141 -369 -141q-221 0 -368 141q-148 145 -148 358q0 214 148 359zM715 639q-58 61 -148 61q-89 0 -147 -61q-55 -61 -55 -160q0 -96 55 -160q58 -61 147 -61q90 0 148 61
q57 63 57 160q0 100 -57 160zM309 1096l-114 102q111 209 258 209q43 0 137 -49q96 -47 123 -47q56 0 112 86l115 -105q-109 -207 -258 -207q-45 0 -133 48q-85 49 -127 49q-48 0 -113 -86z" />
    <glyph glyph-name="odieresis" unicode="&#xf6;" horiz-adv-x="1136" 
d="M199 838q146 143 368 143q226 0 369 -143q147 -144 147 -359q0 -214 -147 -358q-144 -141 -369 -141q-221 0 -368 141q-148 145 -148 358q0 214 148 359zM715 639q-58 61 -148 61q-89 0 -147 -61q-55 -61 -55 -160q0 -96 55 -160q58 -61 147 -61q90 0 148 61
q57 63 57 160q0 100 -57 160zM756 1090q-68 0 -110 42t-42 109t42 109.5t110 42.5t110.5 -42.5t42.5 -109.5t-42.5 -109t-110.5 -42zM379 1090q-68 0 -110 42t-42 109t42.5 109.5t109.5 42.5t109 -42t42 -110q0 -67 -42 -109t-109 -42z" />
    <glyph glyph-name="divide" unicode="&#xf7;" horiz-adv-x="1232" 
d="M63 821h1106v-282h-1106v282zM442 1094q0 72 51 123t121 51q73 0 125 -52t52 -122q0 -73 -52 -121.5t-125 -48.5q-72 0 -122 50t-50 120zM442 264q0 73 51 123.5t121 50.5q73 0 125 -51t52 -123q0 -73 -52 -121.5t-125 -48.5q-72 0 -122 50t-50 120z" />
    <glyph glyph-name="oslash" unicode="&#xf8;" horiz-adv-x="1103" 
d="M553 981q141 0 258 -63l141 169l121 -96l-139 -168q133 -139 133 -344q0 -214 -147 -358q-144 -141 -367 -141q-146 0 -264 65l-144 -172l-114 102l135 164q-129 138 -129 340q0 214 145 359q146 143 371 143zM756 479q0 55 -21 105l-260 -312q32 -14 78 -14
q88 0 145.5 62.5t57.5 158.5zM553 700q-91 0 -148 -61.5t-57 -159.5q0 -52 19 -98l256 307q-35 12 -70 12z" />
    <glyph glyph-name="ugrave" unicode="&#xf9;" horiz-adv-x="1105" 
d="M705 426v535h315v-560q0 -186 -131 -305q-128 -116 -340 -116q-213 0 -338 116t-125 299v566h315v-535q0 -71 42 -115.5t106 -44.5q70 0 113 43.5t43 116.5zM682 1075h-260l-264 334h362z" />
    <glyph glyph-name="uacute" unicode="&#xfa;" horiz-adv-x="1105" 
d="M705 426v535h315v-560q0 -186 -131 -305q-128 -116 -340 -116q-213 0 -338 116t-125 299v566h315v-535q0 -71 42 -115.5t106 -44.5q70 0 113 43.5t43 116.5zM586 1409h360l-262 -334h-260z" />
    <glyph glyph-name="ucircumflex" unicode="&#xfb;" horiz-adv-x="1105" 
d="M705 426v535h315v-560q0 -186 -131 -305q-128 -116 -340 -116q-213 0 -338 116t-125 299v566h315v-535q0 -71 42 -115.5t106 -44.5q70 0 113 43.5t43 116.5zM651 1444l287 -371h-264l-121 168l-121 -168h-264l287 371h196z" />
    <glyph glyph-name="udieresis" unicode="&#xfc;" horiz-adv-x="1105" 
d="M705 426v535h315v-560q0 -186 -131 -305q-128 -116 -340 -116q-213 0 -338 116t-125 299v566h315v-535q0 -71 42 -115.5t106 -44.5q70 0 113 43.5t43 116.5zM741 1090q-67 0 -109 42t-42 109q0 68 42 110t109 42q68 0 111 -42.5t43 -109.5t-43 -109t-111 -42zM362 1090
q-66 0 -107.5 42t-41.5 109t41.5 109.5t107.5 42.5q68 0 111 -42.5t43 -109.5t-43 -109t-111 -42z" />
    <glyph glyph-name="yacute" unicode="&#xfd;" horiz-adv-x="1138" 
d="M403 0l-385 961h351l202 -644l199 644h352l-444 -1102q-56 -138 -162 -208.5t-248 -70.5q-106 0 -207 49l43 248q58 -24 113 -24q69 0 117.5 37.5t68.5 109.5zM594 1409h360l-262 -334h-262z" />
    <glyph glyph-name="thorn" unicode="&#xfe;" horiz-adv-x="1193" 
d="M412 72v-471h-318v1806h307v-547q95 121 291 121q204 0 326 -143q123 -141 123 -361q0 -217 -123 -358q-124 -139 -326 -139q-88 0 -162.5 24.5t-117.5 67.5zM612 698q-91 0 -147.5 -61t-56.5 -158t56.5 -157t147.5 -60t151 61.5t60 155.5q0 98 -59 158.5t-152 60.5z" />
    <glyph glyph-name="ydieresis" unicode="&#xff;" horiz-adv-x="1138" 
d="M403 0l-385 961h351l202 -644l199 644h352l-444 -1102q-56 -138 -162 -208.5t-248 -70.5q-106 0 -207 49l43 248q58 -24 113 -24q69 0 117.5 37.5t68.5 109.5zM750 1090q-68 0 -110 42t-42 109t42 109.5t110 42.5q67 0 109 -42t42 -110q0 -67 -41.5 -109t-109.5 -42z
M371 1090q-68 0 -110 42t-42 109t42.5 109.5t109.5 42.5q68 0 110.5 -42.5t42.5 -109.5t-42.5 -109t-110.5 -42z" />
    <glyph glyph-name="Amacron" unicode="&#x100;" horiz-adv-x="1482" 
d="M741 1028l-192 -522h387zM1120 0l-92 250h-573l-93 -250h-352l537 1358h389l537 -1358h-353zM446 1706h590v-205h-590v205z" />
    <glyph glyph-name="amacron" unicode="&#x101;" horiz-adv-x="1191" 
d="M1096 961v-961h-305l-11 100q-99 -120 -282 -120q-194 0 -320 141q-125 143 -125 358q0 216 125 359t320 143q183 0 282 -123l11 103h305zM573 700q-91 0 -149 -61q-57 -60 -57 -160t57 -160q58 -61 147 -61q92 0 150.5 61.5t58.5 159.5q0 97 -57.5 158.5t-149.5 62.5z
M262 1307h592v-203h-592v203z" />
    <glyph glyph-name="Abreve" unicode="&#x102;" horiz-adv-x="1482" 
d="M741 1028l-192 -522h387zM1120 0l-92 250h-573l-93 -250h-352l537 1358h389l537 -1358h-353zM418 1792h211q2 -56 32.5 -91.5t79.5 -35.5q51 0 82 35t33 92h211q-7 -148 -96 -236t-230 -88q-139 0 -227 88.5t-96 235.5z" />
    <glyph glyph-name="abreve" unicode="&#x103;" horiz-adv-x="1191" 
d="M1096 961v-961h-305l-11 100q-99 -120 -282 -120q-194 0 -320 141q-125 143 -125 358q0 216 125 359t320 143q183 0 282 -123l11 103h305zM573 700q-91 0 -149 -61q-57 -60 -57 -160t57 -160q58 -61 147 -61q92 0 150.5 61.5t58.5 159.5q0 97 -57.5 158.5t-149.5 62.5z
M236 1395h208q1 -57 33 -92t82 -35q51 0 82 35t33 92h209q-6 -147 -95 -236.5t-229 -89.5t-228.5 89t-94.5 237z" />
    <glyph glyph-name="Aogonek" unicode="&#x104;" horiz-adv-x="1449" 
d="M1120 0l-92 250h-573l-93 -250h-352l537 1358h389l537 -1358h-134q-194 -114 -194 -195q0 -35 24.5 -55t67.5 -20q58 0 109 26l63 -176q-83 -57 -219 -57q-120 0 -190 58t-70 153q0 152 190 266zM741 1028l-192 -522h387z" />
    <glyph glyph-name="aogonek" unicode="&#x105;" horiz-adv-x="1163" 
d="M1096 961v-961h-86q-197 -114 -197 -195q0 -35 25.5 -55t68.5 -20q58 0 109 26l63 -176q-86 -57 -219 -57q-120 0 -190 58t-70 153q0 152 191 266l-11 100q-99 -120 -282 -120q-194 0 -320 141q-125 143 -125 358q0 216 125 359t320 143q183 0 282 -123l11 103h305z
M573 700q-91 0 -149 -61q-57 -60 -57 -160t57 -160q58 -61 147 -61q92 0 150.5 61.5t58.5 159.5q0 97 -57.5 158.5t-149.5 62.5z" />
    <glyph glyph-name="Cacute" unicode="&#x106;" horiz-adv-x="1341" 
d="M59 678q0 136 43 251t117.5 196.5t174.5 139.5t215 85.5t239 27.5q221 0 428 -92l-23 -287q-160 80 -358 80q-99 0 -186 -22.5t-158.5 -68.5t-113.5 -124.5t-42 -181.5q0 -187 129 -301q131 -113 334 -113q229 0 397 107l45 -281q-231 -114 -491 -114q-203 -4 -375 83
t-274.5 249.5t-100.5 365.5zM881 1806h362l-262 -333h-262z" />
    <glyph glyph-name="cacute" unicode="&#x107;" horiz-adv-x="980" 
d="M53 477q0 160 71.5 276t190 172t269.5 56q158 0 315 -66l-22 -268q-115 47 -238 47q-125 0 -197.5 -52t-72.5 -163q0 -98 70.5 -154.5t183.5 -56.5q72 0 127 15t131 53l30 -277q-87 -43 -159.5 -61t-163.5 -18q-232 0 -383 139q-152 140 -152 358zM575 1409h363
l-262 -334h-262z" />
    <glyph glyph-name="Ccircumflex" unicode="&#x108;" horiz-adv-x="1341" 
d="M59 678q0 136 43 251t117.5 196.5t174.5 139.5t215 85.5t239 27.5q221 0 428 -92l-23 -287q-160 80 -358 80q-99 0 -186 -22.5t-158.5 -68.5t-113.5 -124.5t-42 -181.5q0 -187 129 -301q131 -113 334 -113q229 0 397 107l45 -281q-231 -114 -491 -114q-203 -4 -375 83
t-274.5 249.5t-100.5 365.5zM838 1841l286 -371h-264l-121 170l-121 -170h-264l287 371h197z" />
    <glyph glyph-name="ccircumflex" unicode="&#x109;" horiz-adv-x="972" 
d="M53 477q0 160 71.5 276t190 172t269.5 56q158 0 315 -66l-22 -268q-115 47 -238 47q-125 0 -197.5 -52t-72.5 -163q0 -98 70.5 -154.5t183.5 -56.5q72 0 127 15t131 53l30 -277q-87 -43 -159.5 -61t-163.5 -18q-232 0 -383 139q-152 140 -152 358zM641 1444l289 -371
h-264l-121 168l-121 -168h-264l286 371h195z" />
    <glyph glyph-name="Cdotaccent" unicode="&#x10a;" horiz-adv-x="1341" 
d="M59 678q0 136 43 251t117.5 196.5t174.5 139.5t215 85.5t239 27.5q221 0 428 -92l-23 -287q-160 80 -358 80q-99 0 -186 -22.5t-158.5 -68.5t-113.5 -124.5t-42 -181.5q0 -187 129 -301q131 -113 334 -113q229 0 397 107l45 -281q-231 -114 -491 -114q-203 -4 -375 83
t-274.5 249.5t-100.5 365.5zM819 1466q-75 0 -123.5 48.5t-48.5 123.5q0 78 48.5 126t123.5 48q78 0 126 -48t48 -126q0 -76 -48.5 -124t-125.5 -48z" />
    <glyph glyph-name="cdotaccent" unicode="&#x10b;" horiz-adv-x="954" 
d="M53 477q0 160 71.5 276t190 172t269.5 56q158 0 315 -66l-22 -268q-115 47 -238 47q-125 0 -197.5 -52t-72.5 -163q0 -98 70.5 -154.5t183.5 -56.5q72 0 127 15t131 53l30 -277q-87 -43 -159.5 -61t-163.5 -18q-232 0 -383 139q-152 140 -152 358zM545 1069
q-75 0 -123.5 48.5t-48.5 123.5q0 77 48 124.5t124 47.5t125 -47.5t49 -124.5q0 -75 -49.5 -123.5t-124.5 -48.5z" />
    <glyph glyph-name="Ccaron" unicode="&#x10c;" horiz-adv-x="1341" 
d="M59 678q0 136 43 251t117.5 196.5t174.5 139.5t215 85.5t239 27.5q221 0 428 -92l-23 -287q-160 80 -358 80q-99 0 -186 -22.5t-158.5 -68.5t-113.5 -124.5t-42 -181.5q0 -187 129 -301q131 -113 334 -113q229 0 397 107l45 -281q-231 -114 -491 -114q-203 -4 -375 83
t-274.5 249.5t-100.5 365.5zM416 1851h264l121 -170l121 170h264l-289 -370h-195z" />
    <glyph glyph-name="ccaron" unicode="&#x10d;" horiz-adv-x="972" 
d="M53 477q0 160 71.5 276t190 172t269.5 56q158 0 315 -66l-22 -268q-115 47 -238 47q-125 0 -197.5 -52t-72.5 -163q0 -98 70.5 -154.5t183.5 -56.5q72 0 127 15t131 53l30 -277q-87 -43 -159.5 -61t-163.5 -18q-232 0 -383 139q-152 140 -152 358zM160 1452h264l121 -168
l121 168h264l-289 -369h-195z" />
    <glyph glyph-name="Dcaron" unicode="&#x10e;" horiz-adv-x="1466" 
d="M709 0h-596v1358h596q328 0 512 -178t184 -498t-188 -502q-186 -180 -508 -180zM680 1081h-238v-805h238q193 0 290 103.5t97 302.5q0 399 -387 399zM270 1851h265l120 -170l121 170h264l-286 -370h-197z" />
    <glyph glyph-name="dcaron" unicode="&#x10f;" horiz-adv-x="1294" 
d="M1460 967h-225v440h297zM1100 1409v-1409h-305l-11 74q-42 -42 -118.5 -68t-163.5 -26q-199 0 -326 139q-123 141 -123 358q0 220 123 361q125 143 326 143q196 0 291 -123v551h307zM584 698q-93 0 -153 -61t-60 -158q0 -94 60.5 -155.5t152.5 -61.5q89 0 146.5 60.5
t57.5 156.5t-58 157.5t-146 61.5z" />
    <glyph glyph-name="Dcroat" unicode="&#x110;" horiz-adv-x="1521" 
d="M764 0h-594v604h-133v184h133v570h594q328 0 512 -178t184 -498t-188 -502q-186 -180 -508 -180zM735 1081h-237v-293h346v-184h-346v-328h237q194 0 290.5 103.5t96.5 302.5q0 399 -387 399z" />
    <glyph glyph-name="dslash" unicode="&#x111;" horiz-adv-x="1222" 
d="M1100 1092v-1092h-305l-11 74q-43 -43 -118 -68.5t-164 -25.5q-199 0 -326 139q-123 141 -123 358q0 220 123 361q125 143 326 143q196 0 291 -123v234h-287v184h287v133h307v-133h110v-184h-110zM584 698q-93 0 -153 -61t-60 -158q0 -94 60.5 -155.5t152.5 -61.5
q89 0 146.5 60.5t57.5 156.5t-58 157.5t-146 61.5z" />
    <glyph glyph-name="Emacron" unicode="&#x112;" horiz-adv-x="1206" 
d="M442 276h707v-276h-1036v1358h1026v-277h-697v-252h617v-276h-617v-277zM336 1706h590v-205h-590v205z" />
    <glyph glyph-name="emacron" unicode="&#x113;" horiz-adv-x="1067" 
d="M360 584h359q0 61 -47 103t-121 42q-83 0 -134 -40t-57 -105zM938 301l43 -235q-65 -37 -162 -61.5t-196 -24.5q-268 0 -418 135q-152 140 -152 364q0 226 137 363q139 139 355 139q108 0 199.5 -36.5t158 -105.5t94 -183t2.5 -257h-639q10 -75 82 -114t183 -39
q89 0 175.5 15.5t137.5 39.5zM256 1307h592v-203h-592v203z" />
    <glyph glyph-name="Ebreve" unicode="&#x114;" horiz-adv-x="1206" 
d="M442 276h707v-276h-1036v1358h1026v-277h-697v-252h617v-276h-617v-277zM307 1792h209q2 -56 34 -91.5t81 -35.5q51 0 81.5 35t32.5 92h209q-6 -147 -94.5 -235.5t-228.5 -88.5t-229 89t-95 235z" />
    <glyph glyph-name="ebreve" unicode="&#x115;" horiz-adv-x="1067" 
d="M360 584h359q0 61 -47 103t-121 42q-83 0 -134 -40t-57 -105zM938 301l43 -235q-65 -37 -162 -61.5t-196 -24.5q-268 0 -418 135q-152 140 -152 364q0 226 137 363q139 139 355 139q108 0 199.5 -36.5t158 -105.5t94 -183t2.5 -257h-639q10 -75 82 -114t183 -39
q89 0 175.5 15.5t137.5 39.5zM229 1395h209q1 -57 33 -92t82 -35q51 0 82 35t33 92h209q-6 -147 -95 -236.5t-229 -89.5t-229 89.5t-95 236.5z" />
    <glyph glyph-name="Edotaccent" unicode="&#x116;" horiz-adv-x="1206" 
d="M442 276h707v-276h-1036v1358h1026v-277h-697v-252h617v-276h-617v-277zM651 1466q-75 0 -123.5 48.5t-48.5 123.5q0 78 48.5 126t123.5 48q76 0 125 -48.5t49 -125.5q0 -75 -49.5 -123.5t-124.5 -48.5z" />
    <glyph glyph-name="edotaccent" unicode="&#x117;" horiz-adv-x="1067" 
d="M360 584h359q0 61 -47 103t-121 42q-83 0 -134 -40t-57 -105zM938 301l43 -235q-65 -37 -162 -61.5t-196 -24.5q-268 0 -418 135q-152 140 -152 364q0 226 137 363q139 139 355 139q108 0 199.5 -36.5t158 -105.5t94 -183t2.5 -257h-639q10 -75 82 -114t183 -39
q89 0 175.5 15.5t137.5 39.5zM553 1069q-75 0 -123.5 48.5t-48.5 123.5q0 77 48 124.5t124 47.5q78 0 126 -47t48 -125q0 -75 -48.5 -123.5t-125.5 -48.5z" />
    <glyph glyph-name="Eogonek" unicode="&#x118;" horiz-adv-x="1234" 
d="M442 276h707v-276q-197 -114 -197 -195q0 -35 24.5 -55t67.5 -20q58 0 109 26l66 -176q-86 -57 -222 -57q-118 0 -189 58.5t-71 152.5q0 152 191 266h-815v1358h1026v-277h-697v-252h617v-276h-617v-277z" />
    <glyph glyph-name="eogonek" unicode="&#x119;" horiz-adv-x="1067" 
d="M938 301l43 -235q-82 -47 -182 -66q-197 -114 -197 -195q0 -35 25.5 -55t68.5 -20q58 0 109 26l63 -176q-86 -57 -219 -57q-120 0 -190 58t-70 153q0 142 164 250q-234 17 -367 149t-133 346q0 226 137 363q139 139 355 139q108 0 199.5 -36.5t158 -105.5t94 -183
t2.5 -257h-639q10 -75 82 -114t183 -39q89 0 175.5 15.5t137.5 39.5zM360 584h359q0 61 -47 103t-121 42q-83 0 -134 -40t-57 -105z" />
    <glyph glyph-name="Ecaron" unicode="&#x11a;" horiz-adv-x="1206" 
d="M442 276h707v-276h-1036v1358h1026v-277h-697v-252h617v-276h-617v-277zM246 1851h264l121 -170l121 170h264l-287 -370h-197z" />
    <glyph glyph-name="ecaron" unicode="&#x11b;" horiz-adv-x="1067" 
d="M360 584h359q0 61 -47 103t-121 42q-83 0 -134 -40t-57 -105zM938 301l43 -235q-65 -37 -162 -61.5t-196 -24.5q-268 0 -418 135q-152 140 -152 364q0 226 137 363q139 139 355 139q108 0 199.5 -36.5t158 -105.5t94 -183t2.5 -257h-639q10 -75 82 -114t183 -39
q89 0 175.5 15.5t137.5 39.5zM168 1452h264l121 -168l121 168h264l-287 -369h-196z" />
    <glyph glyph-name="Gcircumflex" unicode="&#x11c;" horiz-adv-x="1460" 
d="M1057 305v207h-316v268h645v-661q-119 -63 -263 -100t-277 -37q-241 0 -418 88q-179 91 -275 249.5t-96 362.5q0 169 67.5 304.5t181.5 219.5t257 128t301 44q241 0 457 -94l-23 -283q-197 84 -405 84q-102 0 -189 -23t-157.5 -69.5t-111 -126t-40.5 -184.5
q0 -187 121 -299q123 -111 313 -111q149 0 228 33zM897 1841l289 -371h-264l-121 170l-121 -170h-264l286 371h195z" />
    <glyph glyph-name="gcircumflex" unicode="&#x11d;" horiz-adv-x="1193" 
d="M584 698q-93 0 -153 -61t-60 -158q0 -94 60.5 -155.5t152.5 -61.5q89 0 146.5 60.5t57.5 156.5t-58 157.5t-146 61.5zM784 31v55q-37 -49 -113 -77.5t-169 -28.5q-199 0 -326 139q-123 141 -123 358q0 220 123 361q125 143 326 143q196 0 291 -123l10 103h295v-947
q0 -92 -34.5 -166.5t-91 -123.5t-133 -82t-156.5 -47.5t-165 -14.5q-204 0 -377 78l29 262q40 -22 133 -43q90 -20 189 -20q48 0 93.5 7.5t93 25.5t76.5 54t29 87zM612 1444l287 -371h-264l-121 168l-121 -168h-264l287 371h196z" />
    <glyph glyph-name="Gbreve" unicode="&#x11e;" horiz-adv-x="1460" 
d="M1057 305v207h-316v268h645v-661q-119 -63 -263 -100t-277 -37q-241 0 -418 88q-179 91 -275 249.5t-96 362.5q0 169 67.5 304.5t181.5 219.5t257 128t301 44q241 0 457 -94l-23 -283q-197 84 -405 84q-102 0 -189 -23t-157.5 -69.5t-111 -126t-40.5 -184.5
q0 -187 121 -299q123 -111 313 -111q149 0 228 33zM475 1792h211q2 -56 34 -91.5t81 -35.5q50 0 80 34.5t32 92.5h211q-7 -148 -95 -236t-228 -88t-229.5 89t-96.5 235z" />
    <glyph glyph-name="gbreve" unicode="&#x11f;" horiz-adv-x="1193" 
d="M584 698q-93 0 -153 -61t-60 -158q0 -94 60.5 -155.5t152.5 -61.5q89 0 146.5 60.5t57.5 156.5t-58 157.5t-146 61.5zM784 31v55q-37 -49 -113 -77.5t-169 -28.5q-199 0 -326 139q-123 141 -123 358q0 220 123 361q125 143 326 143q196 0 291 -123l10 103h295v-947
q0 -92 -34.5 -166.5t-91 -123.5t-133 -82t-156.5 -47.5t-165 -14.5q-204 0 -377 78l29 262q40 -22 133 -43q90 -20 189 -20q48 0 93.5 7.5t93 25.5t76.5 54t29 87zM190 1395h209q1 -57 33 -92t82 -35q51 0 82 35t33 92h209q-6 -147 -95 -236.5t-229 -89.5t-229 89.5
t-95 236.5z" />
    <glyph glyph-name="Gdotaccent" unicode="&#x120;" horiz-adv-x="1460" 
d="M1057 305v207h-316v268h645v-661q-119 -63 -263 -100t-277 -37q-241 0 -418 88q-179 91 -275 249.5t-96 362.5q0 169 67.5 304.5t181.5 219.5t257 128t301 44q241 0 457 -94l-23 -283q-197 84 -405 84q-102 0 -189 -23t-157.5 -69.5t-111 -126t-40.5 -184.5
q0 -187 121 -299q123 -111 313 -111q149 0 228 33zM829 1466q-75 0 -123.5 48.5t-48.5 123.5q0 78 48.5 126t123.5 48q78 0 126.5 -48t48.5 -126q0 -75 -48.5 -123.5t-126.5 -48.5z" />
    <glyph glyph-name="gdotaccent" unicode="&#x121;" horiz-adv-x="1193" 
d="M584 698q-93 0 -153 -61t-60 -158q0 -94 60.5 -155.5t152.5 -61.5q89 0 146.5 60.5t57.5 156.5t-58 157.5t-146 61.5zM784 31v55q-37 -49 -113 -77.5t-169 -28.5q-199 0 -326 139q-123 141 -123 358q0 220 123 361q125 143 326 143q196 0 291 -123l10 103h295v-947
q0 -92 -34.5 -166.5t-91 -123.5t-133 -82t-156.5 -47.5t-165 -14.5q-204 0 -377 78l29 262q40 -22 133 -43q90 -20 189 -20q48 0 93.5 7.5t93 25.5t76.5 54t29 87zM514 1069q-75 0 -123.5 48.5t-48.5 123.5q0 77 48 124.5t124 47.5q78 0 126 -47t48 -125q0 -75 -48 -123.5
t-126 -48.5z" />
    <glyph glyph-name="Gcommaaccent" unicode="&#x122;" horiz-adv-x="1460" 
d="M1057 305v207h-316v268h645v-661q-119 -63 -263 -100t-277 -37q-241 0 -418 88q-179 91 -275 249.5t-96 362.5q0 169 67.5 304.5t181.5 219.5t257 128t301 44q241 0 457 -94l-23 -283q-197 84 -405 84q-102 0 -189 -23t-157.5 -69.5t-111 -126t-40.5 -184.5
q0 -187 121 -299q123 -111 313 -111q149 0 228 33zM895 -539h-225v443h297z" />
    <glyph glyph-name="gcommaaccent" unicode="&#x123;" horiz-adv-x="1193" 
d="M584 698q-93 0 -153 -61t-60 -158q0 -94 60.5 -155.5t152.5 -61.5q89 0 146.5 60.5t57.5 156.5t-58 157.5t-146 61.5zM784 31v55q-37 -49 -113 -77.5t-169 -28.5q-199 0 -326 139q-123 141 -123 358q0 220 123 361q125 143 326 143q196 0 291 -123l10 103h295v-947
q0 -92 -34.5 -166.5t-91 -123.5t-133 -82t-156.5 -47.5t-165 -14.5q-204 0 -377 78l29 262q40 -22 133 -43q90 -20 189 -20q48 0 93.5 7.5t93 25.5t76.5 54t29 87zM506 1532h225v-442h-297z" />
    <glyph glyph-name="Hcircumflex" unicode="&#x124;" horiz-adv-x="1472" 
d="M1030 555h-588v-555h-329v1358h329v-527h588v527h330v-1358h-330v555zM834 1841l286 -371h-264l-121 170l-121 -170h-264l289 371h195z" />
    <glyph glyph-name="hcircumflex" unicode="&#x125;" horiz-adv-x="1161" 
d="M123 1407h313v-530q98 104 283 104q143 0 248.5 -97.5t105.5 -258.5v-625h-313v535q0 71 -48 114t-114 43q-68 0 -114 -43t-46 -114v-535h-315v1407zM383 1862l287 -371h-264l-121 170l-121 -170h-264l286 371h197z" />
    <glyph glyph-name="Hbar" unicode="&#x126;" horiz-adv-x="1570" 
d="M1079 555h-587v-555h-330v1004h-129v184h129v170h330v-170h587v170h328v-170h131v-184h-131v-1004h-328v555zM492 1004v-173h587v173h-587z" />
    <glyph glyph-name="hbar" unicode="&#x127;" horiz-adv-x="1150" 
d="M113 1407h313v-131h299v-184h-299v-215q98 104 283 104q143 0 249.5 -97.5t106.5 -258.5v-625h-315v535q0 71 -48 114t-114 43q-68 0 -114 -43t-46 -114v-535h-315v1092h-113v184h113v131z" />
    <glyph glyph-name="Itilde" unicode="&#x128;" horiz-adv-x="555" 
d="M113 1358h329v-1358h-329v1358zM20 1493l-114 104q109 207 258 207q43 0 137 -49q96 -47 123 -47q54 0 113 86l114 -104q-112 -207 -260 -207q-47 0 -133 47q-85 49 -127 49q-46 0 -111 -86z" />
    <glyph glyph-name="itilde" unicode="&#x129;" horiz-adv-x="505" 
d="M94 961h316v-961h-316v961zM-4 1096l-117 102q111 209 258 209q43 0 137 -49q96 -47 123 -47q56 0 115 86l115 -105q-112 -207 -260 -207q-46 0 -134 48q-85 49 -127 49q-48 0 -110 -86z" />
    <glyph glyph-name="Imacron" unicode="&#x12a;" horiz-adv-x="555" 
d="M113 1358h329v-1358h-329v1358zM-18 1706h591v-205h-591v205z" />
    <glyph glyph-name="imacron" unicode="&#x12b;" horiz-adv-x="505" 
d="M94 961h316v-961h-316v961zM-43 1307h592v-203h-592v203z" />
    <glyph glyph-name="Ibreve" unicode="&#x12c;" horiz-adv-x="555" 
d="M113 1358h329v-1358h-329v1358zM-45 1792h209q2 -56 34 -91.5t81 -35.5q50 0 80 34.5t32 92.5h211q-6 -147 -94.5 -235.5t-228.5 -88.5t-229 89t-95 235z" />
    <glyph glyph-name="ibreve" unicode="&#x12d;" horiz-adv-x="505" 
d="M94 961h316v-961h-316v961zM-72 1395h211q1 -57 33 -92t82 -35q49 0 80 35t33 92h211q-8 -148 -96.5 -237t-227.5 -89q-140 0 -229.5 89t-96.5 237z" />
    <glyph glyph-name="Iogonek" unicode="&#x12e;" horiz-adv-x="555" 
d="M113 1358h329v-1358h-59q-197 -114 -197 -195q0 -35 26 -55t69 -20q57 0 108 26l64 -176q-86 -57 -220 -57q-120 0 -190 58t-70 153q0 152 191 266h-51v1358z" />
    <glyph glyph-name="iogonek" unicode="&#x12f;" horiz-adv-x="505" 
d="M94 961h316v-961h-54q-194 -114 -194 -195q0 -35 24.5 -55t67.5 -20q57 0 108 26l64 -176q-83 -57 -219 -57q-120 0 -190 58t-70 153q0 152 190 266h-43v961zM252 1083q-77 0 -124.5 48t-47.5 124t47.5 124t124.5 48q75 0 124.5 -48.5t49.5 -123.5t-49.5 -123.5
t-124.5 -48.5z" />
    <glyph glyph-name="Idot" unicode="&#x130;" horiz-adv-x="555" 
d="M113 1358h329v-1358h-329v1358zM279 1466q-75 0 -124 48.5t-49 123.5q0 77 48.5 125.5t124.5 48.5t125 -48.5t49 -125.5q0 -75 -49.5 -123.5t-124.5 -48.5z" />
    <glyph glyph-name="dotlessi" unicode="&#x131;" horiz-adv-x="505" 
d="M94 961h316v-961h-316v961z" />
    <glyph glyph-name="IJ" unicode="&#x132;" horiz-adv-x="1710" 
d="M113 1358h329v-1358h-329v1358zM657 72l35 276q46 -18 94 -33.5t107 -28.5t111 -18.5t103 1t87.5 25.5t59 59.5t22.5 99.5v626h-463v279h793v-932q0 -91 -30 -166.5t-80.5 -126.5t-118.5 -86t-142.5 -51t-153.5 -16q-126 0 -219 19t-205 73z" />
    <glyph glyph-name="ij" unicode="&#x133;" horiz-adv-x="1058" 
d="M96 961h316v-961h-316v961zM252 1083q-75 0 -123.5 48.5t-48.5 123.5t48.5 123.5t123.5 48.5q78 0 126 -48.5t48 -123.5t-48 -123.5t-126 -48.5zM379 -377l27 248q70 -21 118 -21q127 0 127 140v968h316v-993q0 -95 -31.5 -170t-84.5 -121t-119 -70t-138 -24
q-139 0 -215 43zM807 1083q-75 0 -123.5 48.5t-48.5 123.5t48.5 123.5t123.5 48.5q77 0 125.5 -48.5t48.5 -123.5t-48.5 -123.5t-125.5 -48.5z" />
    <glyph glyph-name="Jcircumflex" unicode="&#x134;" horiz-adv-x="1077" 
d="M25 72l34 276q46 -18 94 -33.5t107 -28.5t111 -18.5t103 1t87.5 25.5t59 59.5t22.5 99.5v626h-463v279h793v-932q0 -113 -45.5 -201t-121.5 -140t-167 -78.5t-190 -26.5q-126 0 -219 19t-205 73zM668 1841l286 -371h-264l-121 170l-120 -170h-265l287 371h197z" />
    <glyph glyph-name="jcircumflex" unicode="&#x135;" horiz-adv-x="501" 
d="M-180 -377l26 248q70 -21 119 -21q127 0 127 140v968h316v-993q0 -95 -31.5 -170t-84.5 -121t-119 -70t-138 -24q-139 0 -215 43zM340 1444l287 -371h-265l-120 168l-121 -168h-264l286 371h197z" />
    <glyph glyph-name="Kcommaaccent" unicode="&#x136;" horiz-adv-x="1406" 
d="M442 1358v-557h207l314 555h364l-414 -701l504 -655h-403l-385 522h-187v-522h-329v1358h329zM768 -539h-225v443h297z" />
    <glyph glyph-name="kcommaaccent" unicode="&#x137;" horiz-adv-x="1124" 
d="M94 1407h316v-770h122l189 324h350l-291 -465l365 -496h-377l-246 360h-112v-360h-316v1407zM627 -539h-226v443h297z" />
    <glyph glyph-name="kgreenlandic" unicode="&#x138;" horiz-adv-x="1150" 
d="M94 961h316v-320h122l189 320h350l-291 -465l365 -496h-377l-246 354h-112v-354h-316v961z" />
    <glyph glyph-name="Lacute" unicode="&#x139;" horiz-adv-x="1153" 
d="M442 276h688v-276h-1017v1358h329v-1082zM369 1806h360l-262 -333h-260z" />
    <glyph glyph-name="lacute" unicode="&#x13a;" horiz-adv-x="505" 
d="M94 1407h316v-1407h-316v1407zM285 1827h362l-264 -334h-260z" />
    <glyph glyph-name="Lcommaaccent" unicode="&#x13b;" horiz-adv-x="1153" 
d="M442 276h688v-276h-1017v1358h329v-1082zM696 -539h-227v443h299z" />
    <glyph glyph-name="lcommaaccent" unicode="&#x13c;" horiz-adv-x="505" 
d="M94 1407h316v-1407h-316v1407zM330 -539h-226v443h297z" />
    <glyph glyph-name="Lcaron" unicode="&#x13d;" horiz-adv-x="1155" 
d="M924 915h-228v443h297zM442 276h688v-276h-1017v1358h329v-1082z" />
    <glyph glyph-name="lcaron" unicode="&#x13e;" horiz-adv-x="505" 
d="M770 967h-225v440h297zM94 1407h316v-1407h-316v1407z" />
    <glyph glyph-name="Ldot" unicode="&#x13f;" horiz-adv-x="1153" 
d="M442 276h688v-276h-1017v1358h329v-1082zM877 526q-75 0 -123.5 48.5t-48.5 123.5t48.5 123.5t123.5 48.5t124.5 -48.5t49.5 -123.5t-49.5 -123.5t-124.5 -48.5z" />
    <glyph glyph-name="ldot" unicode="&#x140;" horiz-adv-x="802" 
d="M94 1407h316v-1407h-316v1407zM641 506q-75 0 -123.5 48.5t-48.5 123.5q0 78 48.5 126t123.5 48q78 0 126 -48t48 -126q0 -76 -48.5 -124t-125.5 -48z" />
    <glyph glyph-name="Lslash" unicode="&#x141;" horiz-adv-x="1292" 
d="M582 276h690v-276h-1018v676l-211 -12v184l211 12v498h328v-477l297 16v-182l-297 -19v-420z" />
    <glyph glyph-name="lslash" unicode="&#x142;" horiz-adv-x="505" 
d="M94 1407h316v-670l157 64v-185l-157 -59v-557h-316v440l-160 -59v170l160 61v795z" />
    <glyph glyph-name="Nacute" unicode="&#x143;" horiz-adv-x="1529" 
d="M1133 0l-691 819v-819h-329v1358h280l694 -828v828h330v-1358h-284zM776 1806h363l-262 -333h-263z" />
    <glyph glyph-name="nacute" unicode="&#x144;" horiz-adv-x="1134" 
d="M1047 625v-625h-316v535q0 71 -48 114t-114 43t-112.5 -43t-46.5 -114v-535h-316v961h289l10 -103q49 60 126.5 91.5t170.5 31.5q144 0 250.5 -97.5t106.5 -258.5zM616 1409h363l-262 -334h-262z" />
    <glyph glyph-name="Ncommaaccent" unicode="&#x145;" horiz-adv-x="1529" 
d="M1133 0l-691 819v-819h-329v1358h280l694 -828v828h330v-1358h-284zM852 -539h-225v443h297z" />
    <glyph glyph-name="ncommaaccent" unicode="&#x146;" horiz-adv-x="1134" 
d="M1047 625v-625h-316v535q0 71 -48 114t-114 43t-112.5 -43t-46.5 -114v-535h-316v961h289l10 -103q49 60 126.5 91.5t170.5 31.5q144 0 250.5 -97.5t106.5 -258.5zM641 -539h-225v443h297z" />
    <glyph glyph-name="Ncaron" unicode="&#x147;" horiz-adv-x="1529" 
d="M1133 0l-691 819v-819h-329v1358h280l694 -828v828h330v-1358h-284zM360 1851h265l120 -170l121 170h264l-286 -370h-197z" />
    <glyph glyph-name="ncaron" unicode="&#x148;" horiz-adv-x="1134" 
d="M1047 625v-625h-316v535q0 71 -48 114t-114 43t-112.5 -43t-46.5 -114v-535h-316v961h289l10 -103q49 60 126.5 91.5t170.5 31.5q144 0 250.5 -97.5t106.5 -258.5zM201 1452h264l121 -168l121 168h264l-289 -369h-195z" />
    <glyph glyph-name="napostrophe" unicode="&#x149;" horiz-adv-x="1425" 
d="M1337 625v-625h-313v535q0 71 -48 114t-114 43q-68 0 -114 -43t-46 -114v-535h-315v961h289l10 -103q49 60 126.5 91.5t170.5 31.5q143 0 248.5 -97.5t105.5 -258.5zM16 911l138 516h311l-223 -516h-226z" />
    <glyph glyph-name="Eng" unicode="&#x14a;" horiz-adv-x="1529" 
d="M1100 63l-660 756v-819h-327v1358h278l699 -842v842h327v-1432q0 -162 -92.5 -254t-237.5 -92q-121 0 -190 29l27 264q38 -7 66 -7t55 8.5t41 34t14 66.5v88z" />
    <glyph glyph-name="eng" unicode="&#x14b;" horiz-adv-x="1134" 
d="M1047 625v-699q0 -165 -97 -256q-96 -90 -231 -90q-123 0 -189 29l25 264q48 -7 87.5 -6.5t64 27.5t24.5 81v560q0 71 -48 114t-114 43t-112.5 -43t-46.5 -114v-535h-316v961h289l10 -103q49 60 126.5 91.5t170.5 31.5q144 0 250.5 -97.5t106.5 -258.5z" />
    <glyph glyph-name="Omacron" unicode="&#x14c;" horiz-adv-x="1562" 
d="M59 682q-2 149 52 279.5t149.5 222.5t231 144t290.5 50q208 3 374 -87t258 -251t89 -360q3 -201 -89 -362t-258 -250.5t-374 -87.5q-319 0 -522 194q-201 198 -201 508zM393 680q0 -175 109 -287q107 -110 284 -110q171 0 275 110q106 109 106 287q0 177 -106 283
q-104 110 -275 110q-177 0 -284 -110q-109 -109 -109 -283zM492 1706h589v-205h-589v205z" />
    <glyph glyph-name="omacron" unicode="&#x14d;" horiz-adv-x="1136" 
d="M199 838q146 143 368 143q226 0 369 -143q147 -144 147 -359q0 -214 -147 -358q-144 -141 -369 -141q-221 0 -368 141q-148 145 -148 358q0 214 148 359zM715 639q-58 61 -148 61q-89 0 -147 -61q-55 -61 -55 -160q0 -96 55 -160q58 -61 147 -61q90 0 148 61
q57 63 57 160q0 100 -57 160zM272 1307h590v-203h-590v203z" />
    <glyph glyph-name="Obreve" unicode="&#x14e;" horiz-adv-x="1562" 
d="M59 682q-2 149 52 279.5t149.5 222.5t231 144t290.5 50q208 3 374 -87t258 -251t89 -360q3 -201 -89 -362t-258 -250.5t-374 -87.5q-319 0 -522 194q-201 198 -201 508zM393 680q0 -175 109 -287q107 -110 284 -110q171 0 275 110q106 109 106 287q0 177 -106 283
q-104 110 -275 110q-177 0 -284 -110q-109 -109 -109 -283zM463 1792h211q2 -56 32.5 -91.5t79.5 -35.5q51 0 82 35t33 92h209q-6 -148 -94.5 -236t-229.5 -88q-140 0 -228.5 89t-94.5 235z" />
    <glyph glyph-name="obreve" unicode="&#x14f;" horiz-adv-x="1136" 
d="M199 838q146 143 368 143q226 0 369 -143q147 -144 147 -359q0 -214 -147 -358q-144 -141 -369 -141q-221 0 -368 141q-148 145 -148 358q0 214 148 359zM715 639q-58 61 -148 61q-89 0 -147 -61q-55 -61 -55 -160q0 -96 55 -160q58 -61 147 -61q90 0 148 61
q57 63 57 160q0 100 -57 160zM244 1395h211q2 -57 32.5 -92t79.5 -35q51 0 82 35t33 92h211q-8 -148 -96.5 -237t-229.5 -89q-139 0 -227 89t-96 237z" />
    <glyph glyph-name="Ohungarumlaut" unicode="&#x150;" horiz-adv-x="1562" 
d="M59 682q-2 149 52 279.5t149.5 222.5t231 144t290.5 50q208 3 374 -87t258 -251t89 -360q3 -201 -89 -362t-258 -250.5t-374 -87.5q-319 0 -522 194q-201 198 -201 508zM393 680q0 -175 109 -287q107 -110 284 -110q171 0 275 110q106 109 106 287q0 177 -106 283
q-104 110 -275 110q-177 0 -284 -110q-109 -109 -109 -283zM444 1473l162 333h322l-234 -333h-250zM1016 1806h342l-273 -333h-251z" />
    <glyph glyph-name="ohungarumlaut" unicode="&#x151;" horiz-adv-x="1191" 
d="M199 838q146 143 368 143q226 0 369 -143q147 -144 147 -359q0 -214 -147 -358q-144 -141 -369 -141q-221 0 -368 141q-148 145 -148 358q0 214 148 359zM715 639q-58 61 -148 61q-89 0 -147 -61q-55 -61 -55 -160q0 -96 55 -160q58 -61 147 -61q90 0 148 61
q57 63 57 160q0 100 -57 160zM225 1075l162 334h322l-234 -334h-250zM797 1409h342l-273 -334h-252z" />
    <glyph glyph-name="OE" unicode="&#x152;" horiz-adv-x="2295" 
d="M59 676q0 197 93.5 358.5t255.5 252.5t358 91q207 0 387 -110v90h1081v-277h-753v-252h567v-276h-567v-277h755v-276h-1083v86q-172 -106 -387 -106q-196 0 -358 90.5t-255.5 250.5t-93.5 355zM395 676q0 -166 103 -281q103 -112 270 -112t268 110q101 113 101 283
q0 175 -101 285q-100 112 -268 112q-170 0 -270 -112q-103 -115 -103 -285z" />
    <glyph glyph-name="oe" unicode="&#x153;" horiz-adv-x="1751" 
d="M1624 301l43 -235q-64 -37 -161 -61.5t-193 -24.5q-257 0 -398 135q-135 -135 -346 -135q-223 0 -370 141q-146 146 -146 358q0 213 146 359q146 143 370 143q208 0 340 -129q123 129 328 129q84 0 159 -22.5t138 -68.5t103.5 -115.5t56 -163.5t-5.5 -212h-631
q10 -75 80 -114t178 -39q89 0 175 15.5t134 39.5zM717 639q-58 61 -148 61q-89 0 -147 -61q-57 -60 -57 -160q0 -97 57 -160q58 -61 147 -61q91 0 146 61q57 63 57 160q0 99 -55 160zM1057 584h350q0 62 -45.5 103.5t-118.5 41.5q-80 0 -130 -40.5t-56 -104.5z" />
    <glyph glyph-name="Racute" unicode="&#x154;" horiz-adv-x="1411" 
d="M696 385h-254v-385h-329v1358h645q224 0 370 -137q148 -136 148 -349q0 -129 -66 -240.5t-178 -178.5l348 -453h-395zM735 1081h-293v-419h293q91 0 147 59t56 151q0 94 -56 151.5t-147 57.5zM668 1806h362l-262 -333h-262z" />
    <glyph glyph-name="racute" unicode="&#x155;" horiz-adv-x="784" 
d="M391 961l10 -132q36 70 102.5 111t149.5 41q58 0 117 -20l-18 -277q-67 23 -121 23q-102 0 -161.5 -61.5t-59.5 -182.5v-463h-316v961h297zM285 1409h360l-262 -334h-260z" />
    <glyph glyph-name="Rcommaaccent" unicode="&#x156;" horiz-adv-x="1411" 
d="M696 385h-254v-385h-329v1358h645q224 0 370 -137q148 -136 148 -349q0 -129 -66 -240.5t-178 -178.5l348 -453h-395zM735 1081h-293v-419h293q91 0 147 59t56 151q0 94 -56 151.5t-147 57.5zM754 -539h-228v443h297z" />
    <glyph glyph-name="rcommaaccent" unicode="&#x157;" horiz-adv-x="784" 
d="M391 961l10 -132q36 70 102.5 111t149.5 41q58 0 117 -20l-18 -277q-67 23 -121 23q-102 0 -161.5 -61.5t-59.5 -182.5v-463h-316v961h297zM340 -539h-227v443h297z" />
    <glyph glyph-name="Rcaron" unicode="&#x158;" horiz-adv-x="1411" 
d="M696 385h-254v-385h-329v1358h645q224 0 370 -137q148 -136 148 -349q0 -129 -66 -240.5t-178 -178.5l348 -453h-395zM735 1081h-293v-419h293q91 0 147 59t56 151q0 94 -56 151.5t-147 57.5zM252 1851h262l123 -170l121 170h264l-289 -370h-194z" />
    <glyph glyph-name="rcaron" unicode="&#x159;" horiz-adv-x="784" 
d="M391 961l10 -132q36 70 102.5 111t149.5 41q58 0 117 -20l-18 -277q-67 23 -121 23q-102 0 -161.5 -61.5t-59.5 -182.5v-463h-316v961h297zM18 1452h265l120 -168l121 168h264l-286 -369h-197z" />
    <glyph glyph-name="Sacute" unicode="&#x15a;" horiz-adv-x="1175" 
d="M596 1378q260 0 457 -96l-27 -281q-52 32 -174 60q-126 33 -242 33q-211 0 -211 -121q0 -43 33 -76q18 -14 37 -23q34 -15 88 -28l195 -58q198 -56 286 -146t88 -243q0 -186 -147 -303q-146 -116 -393 -116q-154 0 -293 32q-154 35 -221 74l26 289q25 -28 181 -70
q148 -37 282 -37q227 0 227 121q0 45 -33 73t-110 48l-211 53q-115 38 -209 94q-162 103 -162 299q0 190 146 306t387 116zM604 1806h363l-265 -333h-260z" />
    <glyph glyph-name="sacute" unicode="&#x15b;" horiz-adv-x="913" 
d="M866 295q0 -146 -113.5 -230.5t-308.5 -84.5q-226 0 -374 65l30 250q71 -27 161.5 -45.5t156.5 -18.5q78 0 110.5 12.5t32.5 43.5q0 26 -27.5 40.5t-101.5 26.5l-88 15q-150 23 -220.5 93t-70.5 197q0 148 120 235t323 87q192 0 327 -63l-24 -244q-56 22 -135 35
q-94 16 -152 16q-158 0 -158 -63q0 -25 33.5 -40.5t114.5 -27.5l94 -16q137 -23 203.5 -92t66.5 -191zM502 1409h360l-262 -334h-260z" />
    <glyph glyph-name="Scircumflex" unicode="&#x15c;" horiz-adv-x="1175" 
d="M596 1378q260 0 457 -96l-27 -281q-52 32 -174 60q-126 33 -242 33q-211 0 -211 -121q0 -43 33 -76q18 -14 37 -23q34 -15 88 -28l195 -58q198 -56 286 -146t88 -243q0 -186 -147 -303q-146 -116 -393 -116q-154 0 -293 32q-154 35 -221 74l26 289q25 -28 181 -70
q148 -37 282 -37q227 0 227 121q0 45 -33 73t-110 48l-211 53q-115 38 -209 94q-162 103 -162 299q0 190 146 306t387 116zM670 1841l286 -371h-264l-121 170l-120 -170h-265l287 371h197z" />
    <glyph glyph-name="scircumflex" unicode="&#x15d;" horiz-adv-x="913" 
d="M866 295q0 -146 -113.5 -230.5t-308.5 -84.5q-226 0 -374 65l30 250q71 -27 161.5 -45.5t156.5 -18.5q78 0 110.5 12.5t32.5 43.5q0 26 -27.5 40.5t-101.5 26.5l-88 15q-150 23 -220.5 93t-70.5 197q0 148 120 235t323 87q192 0 327 -63l-24 -244q-56 22 -135 35
q-94 16 -152 16q-158 0 -158 -63q0 -25 33.5 -40.5t114.5 -27.5l94 -16q137 -23 203.5 -92t66.5 -191zM567 1444l287 -371h-264l-121 168l-121 -168h-264l287 371h196z" />
    <glyph glyph-name="Scedilla" unicode="&#x15e;" horiz-adv-x="1175" 
d="M492 -178h-74l63 164q-105 8 -237 39q-115 27 -172 61l26 289q25 -28 181 -70q148 -37 282 -37q227 0 227 121q0 45 -33 73t-110 48l-211 53q-115 38 -209 94q-162 103 -162 299q0 190 146 306t387 116q260 0 457 -96l-27 -281q-52 32 -174 60q-126 33 -242 33
q-211 0 -211 -121q0 -43 33 -76q18 -14 37 -23q34 -15 88 -28l195 -58q198 -56 286 -146t88 -243q0 -174 -129 -288q-126 -112 -348 -127l-18 -66q104 -13 160.5 -64.5t56.5 -125.5q0 -92 -89.5 -148.5t-232.5 -56.5q-100 0 -164 31v153q62 -18 132 -18q80 -6 108 37
q23 34 -4 65q-32 37 -106 31z" />
    <glyph glyph-name="scedilla" unicode="&#x15f;" horiz-adv-x="913" 
d="M371 -178h-74l63 162q-174 9 -290 61l30 250q71 -27 161.5 -45.5t156.5 -18.5q78 0 110.5 12.5t32.5 43.5q0 26 -27.5 40.5t-101.5 26.5l-88 15q-150 23 -220.5 93t-70.5 197q0 148 120 235t323 87q192 0 327 -63l-24 -244q-56 22 -135 35q-94 16 -152 16
q-158 0 -158 -63q0 -25 33.5 -40.5t114.5 -27.5l94 -16q137 -23 203.5 -92t66.5 -191q0 -127 -90 -209.5t-248 -99.5l-18 -68q103 -13 159 -64.5t56 -125.5q0 -92 -88 -148.5t-231 -56.5q-100 0 -164 31v153q61 -18 131 -18q81 -6 109 37q22 34 -6 65q-32 37 -105 31z" />
    <glyph glyph-name="Scaron" unicode="&#x160;" horiz-adv-x="1175" 
d="M596 1378q260 0 457 -96l-27 -281q-52 32 -174 60q-126 33 -242 33q-211 0 -211 -121q0 -43 33 -76q18 -14 37 -23q34 -15 88 -28l195 -58q198 -56 286 -146t88 -243q0 -186 -147 -303q-146 -116 -393 -116q-154 0 -293 32q-154 35 -221 74l26 289q25 -28 181 -70
q148 -37 282 -37q227 0 227 121q0 45 -33 73t-110 48l-211 53q-115 38 -209 94q-162 103 -162 299q0 190 146 306t387 116zM186 1851h265l120 -170l121 170h264l-286 -370h-197z" />
    <glyph glyph-name="scaron" unicode="&#x161;" horiz-adv-x="913" 
d="M866 295q0 -146 -113.5 -230.5t-308.5 -84.5q-226 0 -374 65l30 250q71 -27 161.5 -45.5t156.5 -18.5q78 0 110.5 12.5t32.5 43.5q0 26 -27.5 40.5t-101.5 26.5l-88 15q-150 23 -220.5 93t-70.5 197q0 148 120 235t323 87q192 0 327 -63l-24 -244q-56 22 -135 35
q-94 16 -152 16q-158 0 -158 -63q0 -25 33.5 -40.5t114.5 -27.5l94 -16q137 -23 203.5 -92t66.5 -191zM84 1452h264l121 -168l121 168h264l-287 -369h-196z" />
    <glyph glyph-name="Tcommaaccent" unicode="&#x162;" horiz-adv-x="1171" 
d="M750 0h-328v1075h-402v283h1131v-283h-401v-1075zM664 -539h-228v443h297z" />
    <glyph glyph-name="tcommaaccent" unicode="&#x163;" horiz-adv-x="831" 
d="M756 961v-259h-262v-309q0 -58 24 -91t69 -40.5t92.5 -2t111.5 21.5l22 -256q-116 -45 -256 -45q-178 0 -278.5 91t-100.5 271v360h-151v259h151v307h305v-307h273zM545 -539h-228v443h297z" />
    <glyph glyph-name="Tcaron" unicode="&#x164;" horiz-adv-x="1171" 
d="M750 0h-328v1075h-402v283h1131v-283h-401v-1075zM201 1851h264l121 -170l121 170h264l-287 -370h-197z" />
    <glyph glyph-name="tcaron" unicode="&#x165;" horiz-adv-x="886" 
d="M799 1067h-228v440h297zM756 961v-259h-262v-309q0 -58 24 -91t69 -40.5t92.5 -2t111.5 21.5l22 -256q-116 -45 -256 -45q-178 0 -278.5 91t-100.5 271v360h-151v259h151v307h305v-307h273z" />
    <glyph glyph-name="Tbar" unicode="&#x166;" horiz-adv-x="1214" 
d="M770 0h-328v606h-295v185h295v284h-401v283h1130v-283h-401v-284h293v-185h-293v-606z" />
    <glyph glyph-name="tbar" unicode="&#x167;" horiz-adv-x="843" 
d="M764 961v-259h-260v-112h239v-184h-239v-13q0 -40 11 -68t32.5 -42.5t47 -21t61.5 -4.5t69 8t76 16l20 -256q-113 -45 -254 -45q-178 0 -278.5 91t-100.5 271v64h-139v184h139v112h-153v259h153v307h306v-307h270z" />
    <glyph glyph-name="Utilde" unicode="&#x168;" horiz-adv-x="1406" 
d="M104 489v869h330v-850q0 -120 71.5 -182t196.5 -62q127 0 199 62.5t72 181.5v850h330v-869q0 -104 -32.5 -190t-88.5 -144.5t-132.5 -98.5t-163.5 -58t-184 -18q-173 0 -305.5 54t-212.5 170.5t-80 284.5zM444 1493l-114 104q112 207 258 207q43 0 137 -49
q96 -47 123 -47q57 0 113 86l114 -104q-109 -207 -258 -207q-49 0 -135 47q-82 49 -125 49q-48 0 -113 -86z" />
    <glyph glyph-name="utilde" unicode="&#x169;" horiz-adv-x="1105" 
d="M705 426v535h315v-560q0 -186 -131 -305q-128 -116 -340 -116q-213 0 -338 116t-125 299v566h315v-535q0 -71 42 -115.5t106 -44.5q70 0 113 43.5t43 116.5zM295 1096l-115 102q111 209 258 209q43 0 137 -49q96 -47 123 -47q57 0 113 86l115 -105q-112 -207 -258 -207
q-48 0 -136 48q-85 49 -124 49q-48 0 -113 -86z" />
    <glyph glyph-name="Umacron" unicode="&#x16a;" horiz-adv-x="1406" 
d="M104 489v869h330v-850q0 -120 71.5 -182t196.5 -62q127 0 199 62.5t72 181.5v850h330v-869q0 -104 -32.5 -190t-88.5 -144.5t-132.5 -98.5t-163.5 -58t-184 -18q-173 0 -305.5 54t-212.5 170.5t-80 284.5zM408 1706h589v-205h-589v205z" />
    <glyph glyph-name="umacron" unicode="&#x16b;" horiz-adv-x="1105" 
d="M705 426v535h315v-560q0 -186 -131 -305q-128 -116 -340 -116q-213 0 -338 116t-125 299v566h315v-535q0 -71 42 -115.5t106 -44.5q70 0 113 43.5t43 116.5zM256 1307h592v-203h-592v203z" />
    <glyph glyph-name="Ubreve" unicode="&#x16c;" horiz-adv-x="1406" 
d="M104 489v869h330v-850q0 -120 71.5 -182t196.5 -62q127 0 199 62.5t72 181.5v850h330v-869q0 -104 -32.5 -190t-88.5 -144.5t-132.5 -98.5t-163.5 -58t-184 -18q-173 0 -305.5 54t-212.5 170.5t-80 284.5zM379 1792h211q2 -56 32.5 -91.5t79.5 -35.5q51 0 82 35t33 92
h209q-6 -148 -94.5 -236t-229.5 -88q-140 0 -228.5 89t-94.5 235z" />
    <glyph glyph-name="ubreve" unicode="&#x16d;" horiz-adv-x="1105" 
d="M705 426v535h315v-560q0 -186 -131 -305q-128 -116 -340 -116q-213 0 -338 116t-125 299v566h315v-535q0 -71 42 -115.5t106 -44.5q70 0 113 43.5t43 116.5zM229 1395h209q1 -57 33 -92t82 -35q51 0 82 35t33 92h209q-6 -147 -95 -236.5t-229 -89.5t-229 89.5t-95 236.5z
" />
    <glyph glyph-name="Uring" unicode="&#x16e;" horiz-adv-x="1406" 
d="M104 489v869h330v-850q0 -120 71.5 -182t196.5 -62q127 0 199 62.5t72 181.5v850h330v-869q0 -104 -32.5 -190t-88.5 -144.5t-132.5 -98.5t-163.5 -58t-184 -18q-173 0 -305.5 54t-212.5 170.5t-80 284.5zM479 1692q0 94 63.5 156.5t159.5 62.5q98 0 161 -62.5t63 -156.5
t-63 -155.5t-161 -61.5q-97 0 -160 61.5t-63 155.5zM641 1692q0 -27 17.5 -45.5t43.5 -18.5t44 19t18 45q0 40 -31 56t-61.5 0t-30.5 -56z" />
    <glyph glyph-name="uring" unicode="&#x16f;" horiz-adv-x="1105" 
d="M705 426v535h315v-560q0 -186 -131 -305q-128 -116 -340 -116q-213 0 -338 116t-125 299v566h315v-535q0 -71 42 -115.5t106 -44.5q70 0 113 43.5t43 116.5zM330 1292q0 97 63 159t160 62t160 -62t63 -159q0 -94 -63 -155.5t-160 -61.5t-160 61.5t-63 155.5zM492 1292
q0 -25 17.5 -43t43.5 -18t43.5 18t17.5 43q0 31 -19 49t-42 18t-42 -18t-19 -49z" />
    <glyph glyph-name="Uhungarumlaut" unicode="&#x170;" horiz-adv-x="1406" 
d="M104 489v869h330v-850q0 -120 71.5 -182t196.5 -62q127 0 199 62.5t72 181.5v850h330v-869q0 -104 -32.5 -190t-88.5 -144.5t-132.5 -98.5t-163.5 -58t-184 -18q-173 0 -305.5 54t-212.5 170.5t-80 284.5zM360 1473l162 333h322l-234 -333h-250zM932 1806h342l-273 -333
h-251z" />
    <glyph glyph-name="uhungarumlaut" unicode="&#x171;" horiz-adv-x="1105" 
d="M705 426v535h315v-560q0 -186 -131 -305q-128 -116 -340 -116q-213 0 -338 116t-125 299v566h315v-535q0 -71 42 -115.5t106 -44.5q70 0 113 43.5t43 116.5zM211 1075l162 334h321l-233 -334h-250zM782 1409h342l-272 -334h-252z" />
    <glyph glyph-name="Uogonek" unicode="&#x172;" horiz-adv-x="1406" 
d="M104 489v869h330v-850q0 -120 71.5 -182t196.5 -62q127 0 199 62.5t72 181.5v850h330v-869q0 -197 -109.5 -321.5t-300.5 -167.5q-197 -114 -197 -195q0 -35 24.5 -55t67.5 -20q58 0 109 26l66 -176q-86 -57 -222 -57q-118 0 -189 58.5t-71 152.5q0 141 162 248
q-118 9 -214 43t-170 94.5t-114.5 154.5t-40.5 215z" />
    <glyph glyph-name="uogonek" unicode="&#x173;" horiz-adv-x="1105" 
d="M705 426v535h315v-560q0 -148 -84.5 -255.5t-230.5 -145.5q-197 -114 -197 -195q0 -35 24.5 -55t67.5 -20q60 0 111 26l63 -176q-86 -57 -219 -57q-120 0 -190 58t-70 153q0 142 168 252q-172 23 -274.5 135t-102.5 274v566h315v-535q0 -71 42 -115.5t106 -44.5
q70 0 113 43.5t43 116.5z" />
    <glyph glyph-name="Wcircumflex" unicode="&#x174;" horiz-adv-x="2062" 
d="M807 0h-418l-366 1358h331l267 -1010l278 989h262l281 -989l264 1010h334l-367 -1358h-418l-225 743zM1128 1841l287 -371h-264l-121 170l-121 -170h-264l289 371h194z" />
    <glyph glyph-name="wcircumflex" unicode="&#x175;" horiz-adv-x="1650" 
d="M514 328l188 612h246l187 -612l168 633h321l-283 -961h-368l-148 481l-147 -481h-369l-282 961h321zM924 1444l286 -371h-264l-121 168l-120 -168h-265l287 371h197z" />
    <glyph glyph-name="Ycircumflex" unicode="&#x176;" horiz-adv-x="1501" 
d="M918 0h-330v506l-578 852h393l355 -518l358 518h375l-573 -852v-506zM850 1841l287 -371h-265l-120 170l-121 -170h-264l286 371h197z" />
    <glyph glyph-name="ycircumflex" unicode="&#x177;" horiz-adv-x="1138" 
d="M403 0l-385 961h351l202 -644l199 644h352l-444 -1102q-56 -138 -162 -208.5t-248 -70.5q-106 0 -207 49l43 248q58 -24 113 -24q69 0 117.5 37.5t68.5 109.5zM659 1444l287 -371h-264l-121 168l-121 -168h-264l287 371h196z" />
    <glyph glyph-name="Ydieresis" unicode="&#x178;" horiz-adv-x="1501" 
d="M918 0h-330v506l-578 852h393l355 -518l358 518h375l-573 -852v-506zM940 1489q-67 0 -109.5 41.5t-42.5 107.5q0 68 42.5 111t109.5 43q68 0 111 -43t43 -111q0 -66 -43 -107.5t-111 -41.5zM561 1489q-66 0 -107.5 41.5t-41.5 107.5q0 68 41.5 111t107.5 43
q69 0 111.5 -43t42.5 -111q0 -66 -42.5 -107.5t-111.5 -41.5z" />
    <glyph glyph-name="Zacute" unicode="&#x179;" horiz-adv-x="1189" 
d="M1137 0h-1082v219l647 858h-647v281h1082v-221l-648 -856h648v-281zM629 1806h360l-262 -333h-260z" />
    <glyph glyph-name="zacute" unicode="&#x17a;" horiz-adv-x="903" 
d="M858 0h-805v207l416 493h-416v261h774v-207l-411 -494h442v-260zM477 1409h363l-262 -334h-263z" />
    <glyph glyph-name="Zdotaccent" unicode="&#x17b;" horiz-adv-x="1189" 
d="M1137 0h-1082v219l647 858h-647v281h1082v-221l-648 -856h648v-281zM596 1466q-75 0 -123.5 48.5t-48.5 123.5q0 78 48 126t124 48q78 0 126 -48t48 -126q0 -76 -48 -124t-126 -48z" />
    <glyph glyph-name="zdotaccent" unicode="&#x17c;" horiz-adv-x="903" 
d="M858 0h-805v207l416 493h-416v261h774v-207l-411 -494h442v-260zM446 1069q-75 0 -123.5 48.5t-48.5 123.5q0 77 48 124.5t124 47.5t125.5 -47.5t49.5 -124.5q0 -75 -50 -123.5t-125 -48.5z" />
    <glyph glyph-name="Zcaron" unicode="&#x17d;" horiz-adv-x="1189" 
d="M1137 0h-1082v219l647 858h-647v281h1082v-221l-648 -856h648v-281zM211 1851h264l121 -170l121 170h264l-287 -370h-196z" />
    <glyph glyph-name="zcaron" unicode="&#x17e;" horiz-adv-x="903" 
d="M858 0h-805v207l416 493h-416v261h774v-207l-411 -494h442v-260zM61 1452h265l120 -168l121 168h264l-286 -369h-197z" />
    <glyph glyph-name="Schwa" unicode="&#x18f;" horiz-adv-x="1425" 
d="M1028 575h-651q0 -127 89.5 -209.5t238.5 -82.5q81 0 143.5 26t99 69.5t56 92.5t24.5 104zM170 973l-59 282q93 54 236 88.5t300 34.5q344 0 531 -184q188 -185 188 -506q0 -211 -76.5 -370t-227 -248.5t-357.5 -89.5q-95 0 -181 19.5t-165.5 62t-139 109t-101 160
t-52 215.5t7.5 275h944q-12 120 -110.5 188t-254.5 68q-129 0 -263 -30t-220 -74z" />
    <glyph glyph-name="florin" unicode="&#x192;" horiz-adv-x="1185" 
d="M397 385l35 258h-158l35 256h160l12 94q10 77 45 145t92.5 122.5t144 86t191.5 31.5q96 0 193 -32l-49 -256q-32 16 -80 21.5t-98.5 -1.5t-90 -41t-47.5 -92l-10 -78h266l-37 -256h-253l-39 -276q-10 -77 -45 -144.5t-92 -121.5t-144 -85.5t-192 -31.5q-99 0 -201 30
l47 256q26 -11 62 -17.5t78 -4.5t78 14.5t63 44t34 78.5z" />
    <glyph glyph-name="Nhookleft" unicode="&#x19d;" horiz-adv-x="1507" 
d="M-109 -391l25 264q48 -7 87.5 -6.5t64 27.5t24.5 81v1383h281l694 -828v828h328v-1358h-285l-688 819v-893q0 -168 -98 -256q-101 -90 -242 -90q-122 0 -191 29z" />
    <glyph glyph-name="Gcaron" unicode="&#x1e6;" horiz-adv-x="1460" 
d="M1057 305v207h-316v268h645v-661q-119 -63 -263 -100t-277 -37q-241 0 -418 88q-179 91 -275 249.5t-96 362.5q0 169 67.5 304.5t181.5 219.5t257 128t301 44q241 0 457 -94l-23 -283q-197 84 -405 84q-102 0 -189 -23t-157.5 -69.5t-111 -126t-40.5 -184.5
q0 -187 121 -299q123 -111 313 -111q149 0 228 33zM434 1851h264l121 -170l121 170h264l-286 -370h-195z" />
    <glyph glyph-name="gcaron" unicode="&#x1e7;" horiz-adv-x="1193" 
d="M584 698q-93 0 -153 -61t-60 -158q0 -94 60.5 -155.5t152.5 -61.5q89 0 146.5 60.5t57.5 156.5t-58 157.5t-146 61.5zM784 31v55q-37 -49 -113 -77.5t-169 -28.5q-199 0 -326 139q-123 141 -123 358q0 220 123 361q125 143 326 143q196 0 291 -123l10 103h295v-947
q0 -92 -34.5 -166.5t-91 -123.5t-133 -82t-156.5 -47.5t-165 -14.5q-204 0 -377 78l29 262q40 -22 133 -43q90 -20 189 -20q48 0 93.5 7.5t93 25.5t76.5 54t29 87zM129 1452h264l121 -168l121 168h264l-287 -369h-196z" />
    <glyph glyph-name="Oogonek" unicode="&#x1ea;" horiz-adv-x="1562" 
d="M59 682q-2 149 52 279.5t149.5 222.5t231 144t290.5 50q208 3 374 -87t258 -251t89 -360q0 -264 -151 -453q-150 -184 -406 -231q-186 -110 -186 -191q0 -35 25.5 -55t68.5 -20q58 0 109 26l63 -176q-86 -57 -219 -57q-120 0 -190 58t-70 153q0 142 164 250
q-290 21 -473 213q-179 194 -179 485zM393 680q0 -175 109 -287q107 -110 284 -110q171 0 275 110q106 109 106 287q0 177 -106 283q-104 110 -275 110q-177 0 -284 -110q-109 -109 -109 -283z" />
    <glyph glyph-name="oogonek" unicode="&#x1eb;" horiz-adv-x="1136" 
d="M1083 479q0 -173 -99 -304t-263 -175q-197 -114 -197 -195q0 -35 24.5 -55t67.5 -20q58 0 109 26l66 -176q-86 -57 -222 -57q-118 0 -189 58.5t-71 152.5q0 143 170 254q-187 27 -309 164q-119 137 -119 327q0 214 148 359q146 143 368 143q226 0 369 -143
q147 -144 147 -359zM715 639q-58 61 -148 61q-89 0 -147 -61q-55 -61 -55 -160q0 -96 55 -160q58 -61 147 -61q90 0 148 61q57 63 57 160q0 100 -57 160z" />
    <glyph glyph-name="Aringacute" unicode="&#x1fa;" horiz-adv-x="1482" 
d="M741 1028l-192 -522h387zM1120 0l-92 250h-573l-93 -250h-352l537 1358h389l537 -1358h-353zM518 1692q0 94 63.5 156.5t159.5 62.5q98 0 161 -62.5t63 -156.5t-63 -155.5t-161 -61.5q-97 0 -160 61.5t-63 155.5zM680 1692q0 -27 17.5 -45.5t43.5 -18.5t44 19t18 45
q0 40 -30.5 56t-61.5 0t-31 -56zM764 2294h360l-262 -334h-262z" />
    <glyph glyph-name="aringacute" unicode="&#x1fb;" horiz-adv-x="1191" 
d="M1096 961v-961h-305l-11 100q-99 -120 -282 -120q-194 0 -320 141q-125 143 -125 358q0 216 125 359t320 143q183 0 282 -123l11 103h305zM573 700q-91 0 -149 -61q-57 -60 -57 -160t57 -160q58 -61 147 -61q92 0 150.5 61.5t58.5 159.5q0 97 -57.5 158.5t-149.5 62.5z
M336 1292q0 97 63 159t160 62t160 -62t63 -159q0 -94 -63 -155.5t-160 -61.5t-160 61.5t-63 155.5zM498 1292q0 -25 17.5 -43t43.5 -18t44 18t18 43q0 31 -19 49t-42.5 18t-42.5 -18t-19 -49zM592 1864h362l-264 -334h-260z" />
    <glyph glyph-name="AEacute" unicode="&#x1fc;" horiz-adv-x="2021" 
d="M1278 276h684v-276h-1014v250h-479l-143 -250h-385l823 1358h1190v-277h-676v-252h596v-276h-596v-277zM1405 1806h362l-264 -333h-260zM948 506v575l-332 -575h332z" />
    <glyph glyph-name="aeacute" unicode="&#x1fd;" horiz-adv-x="1642" 
d="M1516 301l43 -235q-65 -37 -161.5 -61.5t-195.5 -24.5q-292 0 -430 170q-132 -170 -362 -170q-96 0 -177.5 32t-133.5 98t-52 154q0 149 114 224t316 75q111 0 187 -18v22q0 76 -56 109t-170 33q-79 0 -166.5 -22.5t-144.5 -51.5l-29 258q65 35 173 61.5t223 26.5
q227 0 340 -98q116 98 292 98q84 0 159 -22.5t138.5 -68.5t104.5 -115.5t56.5 -163.5t-5.5 -212h-633q12 -75 81.5 -114t176.5 -39q89 0 176.5 15.5t135.5 39.5zM827 1409h363l-262 -334h-262zM485 217q67 0 123 35.5t56 93.5v39q-56 16 -138 16q-68 0 -108.5 -23t-40.5 -71
q0 -43 28.5 -66.5t79.5 -23.5zM948 584h350q0 62 -45 103.5t-118 41.5q-80 0 -130.5 -40.5t-56.5 -104.5z" />
    <glyph glyph-name="Oslashacute" unicode="&#x1fe;" horiz-adv-x="1562" 
d="M59 682q-2 149 52 279.5t149.5 222.5t231 144t290.5 50q177 0 324 -63l141 203l152 -105l-135 -194q116 -94 177.5 -233t61.5 -306q3 -201 -89 -362t-258 -250.5t-374 -87.5q-184 0 -333 67l-144 -207l-151 105l139 200q-113 94 -173.5 232t-60.5 305zM1167 680
q0 159 -92 268l-444 -639q68 -26 155 -26q171 0 275 110q106 109 106 287zM393 680q0 -157 88 -264l443 635q-71 22 -138 22q-177 0 -284 -110q-109 -109 -109 -283zM813 1806h363l-263 -333h-262z" />
    <glyph glyph-name="oslashacute" unicode="&#x1ff;" horiz-adv-x="1103" 
d="M553 981q141 0 258 -63l141 169l121 -96l-139 -168q133 -139 133 -344q0 -214 -147 -358q-144 -141 -367 -141q-146 0 -264 65l-144 -172l-114 102l135 164q-129 138 -129 340q0 214 145 359q146 143 371 143zM584 1409h362l-264 -334h-260zM756 479q0 55 -21 105
l-260 -312q32 -14 78 -14q88 0 145.5 62.5t57.5 158.5zM553 700q-91 0 -148 -61.5t-57 -159.5q0 -52 19 -98l256 307q-35 12 -70 12z" />
    <glyph glyph-name="Scommaaccent" unicode="&#x218;" horiz-adv-x="1175" 
d="M596 1378q260 0 457 -96l-27 -281q-52 32 -174 60q-126 33 -242 33q-211 0 -211 -121q0 -43 33 -76q18 -14 37 -23q34 -15 88 -28l195 -58q198 -56 286 -146t88 -243q0 -186 -147 -303q-146 -116 -393 -116q-154 0 -293 32q-154 35 -221 74l26 289q25 -28 181 -70
q148 -37 282 -37q227 0 227 121q0 45 -33 73t-110 48l-211 53q-115 38 -209 94q-162 103 -162 299q0 190 146 306t387 116zM745 -539h-225v443h297z" />
    <glyph glyph-name="scommaaccent" unicode="&#x219;" horiz-adv-x="913" 
d="M866 295q0 -146 -113.5 -230.5t-308.5 -84.5q-226 0 -374 65l30 250q71 -27 161.5 -45.5t156.5 -18.5q78 0 110.5 12.5t32.5 43.5q0 26 -27.5 40.5t-101.5 26.5l-88 15q-150 23 -220.5 93t-70.5 197q0 148 120 235t323 87q192 0 327 -63l-24 -244q-56 22 -135 35
q-94 16 -152 16q-158 0 -158 -63q0 -25 33.5 -40.5t114.5 -27.5l94 -16q137 -23 203.5 -92t66.5 -191zM549 -539h-227v443h296z" />
    <glyph glyph-name="uni021A" unicode="&#x21a;" horiz-adv-x="1171" 
d="M502 0h-80v1075h-402v283h1131v-283h-401v-1075h-82l-25 -82q106 -13 161.5 -64.5t55.5 -125.5q0 -92 -88.5 -148.5t-230.5 -56.5q-100 0 -164 31v153q61 -18 131 -18q81 -6 109 37q22 34 -6 65q-32 37 -105 31h-76z" />
    <glyph glyph-name="uni021B" unicode="&#x21b;" horiz-adv-x="831" 
d="M385 -178h-74l74 184q-207 77 -207 336v360h-151v259h151v307h305v-307h273v-259h-262v-309q0 -58 24 -91t69 -40.5t92.5 -2t111.5 21.5l22 -256q-116 -45 -256 -45h-14l-19 -62q106 -13 161.5 -64.5t55.5 -125.5q0 -92 -89 -148.5t-232 -56.5q-100 0 -164 31v153
q62 -18 131 -18q81 -6 110 37q22 33 -5 64q-33 37 -107 32z" />
    <glyph glyph-name="dotlessj" unicode="&#x237;" horiz-adv-x="501" 
d="M-180 -377l26 248q70 -21 119 -21q127 0 127 140v968h316v-993q0 -95 -31.5 -170t-84.5 -121t-119 -70t-138 -24q-139 0 -215 43z" />
    <glyph glyph-name="schwa" unicode="&#x259;" horiz-adv-x="1067" 
d="M705 377h-359q0 -61 48 -104.5t122 -43.5q80 0 131.5 42t57.5 106zM127 657l-41 238q65 37 162 61.5t196 24.5q267 0 416 -137q154 -136 154 -365q0 -222 -140 -362q-137 -137 -354 -137q-84 0 -159.5 22.5t-139 68t-104.5 114.5t-56.5 163t5.5 213h641q-12 76 -83.5 115
t-181.5 39q-91 0 -177.5 -16.5t-137.5 -41.5z" />
    <glyph glyph-name="nhookleft" unicode="&#x272;" horiz-adv-x="1105" 
d="M1018 625v-625h-316v535q0 71 -47 114t-112 43q-68 0 -114 -43t-46 -114v-609q0 -166 -96 -256t-232 -90q-122 0 -188 29l24 264q38 -7 66.5 -7t55 8.5t41 34t14.5 66.5v986h288l11 -103q99 123 297 123q143 0 248.5 -97.5t105.5 -258.5z" />
    <glyph glyph-name="circumflex" unicode="&#x2c6;" horiz-adv-x="962" 
d="M580 1841l286 -371h-264l-121 170l-121 -170h-264l287 371h197z" />
    <glyph glyph-name="caron" unicode="&#x2c7;" horiz-adv-x="962" 
d="M96 1851h264l121 -170l121 170h264l-286 -370h-197z" />
    <glyph glyph-name="breve" unicode="&#x2d8;" horiz-adv-x="827" 
d="M90 1792h209q2 -56 34 -91.5t81 -35.5q51 0 81.5 35t32.5 92h209q-6 -148 -94 -236t-229 -88q-140 0 -229 89t-95 235z" />
    <glyph glyph-name="dotaccent" unicode="&#x2d9;" horiz-adv-x="538" 
d="M268 1466q-75 0 -123.5 48.5t-48.5 123.5q0 78 48 126t124 48t125 -48.5t49 -125.5q0 -75 -49.5 -123.5t-124.5 -48.5z" />
    <glyph glyph-name="ring" unicode="&#x2da;" horiz-adv-x="638" 
d="M96 1692q0 94 62.5 156.5t158.5 62.5q98 0 162 -62.5t64 -156.5t-64 -155.5t-162 -61.5q-96 0 -158.5 61.5t-62.5 155.5zM256 1692q0 -26 18.5 -45t44.5 -19q25 0 43.5 19t18.5 45q3 40 -29.5 56t-65 0t-30.5 -56z" />
    <glyph glyph-name="ogonek" unicode="&#x2db;" horiz-adv-x="638" 
d="M348 39l146 -39q-195 -115 -195 -195q0 -35 24.5 -55t67.5 -20q58 0 109 26l63 -176q-86 -57 -219 -57q-120 0 -190 58t-70 153q0 180 264 305z" />
    <glyph glyph-name="tilde" unicode="&#x2dc;" horiz-adv-x="937" 
d="M211 1493l-115 104q112 207 258 207q44 0 138 -49q96 -47 122 -47q57 0 113 86l115 -104q-112 -207 -258 -207q-49 0 -135 47q-85 49 -125 49q-48 0 -113 -86z" />
    <glyph glyph-name="hungarumlaut" unicode="&#x2dd;" horiz-adv-x="1105" 
d="M96 1473l162 333h322l-234 -333h-250zM668 1806h342l-273 -333h-252z" />
    <glyph glyph-name="acutecomb" unicode="&#x301;" horiz-adv-x="716" 
d="M258 2277h363l-265 -333h-260z" />
    <glyph glyph-name="pi" unicode="&#x3c0;" horiz-adv-x="1366" 
d="M1309 258v-270q-31 -8 -95 -8q-178 0 -278 91t-100 271v496h-322v-838h-315v838h-168v284h1280v-284h-160v-455q0 -67 42 -99t116 -26z" />
    <glyph glyph-name="Wgrave" unicode="&#x1e80;" horiz-adv-x="2062" 
d="M807 0h-418l-366 1358h331l267 -1010l278 989h262l281 -989l264 1010h334l-367 -1358h-418l-225 743zM1159 1473h-260l-262 333h360z" />
    <glyph glyph-name="wgrave" unicode="&#x1e81;" horiz-adv-x="1650" 
d="M514 328l188 612h246l187 -612l168 633h321l-283 -961h-368l-148 481l-147 -481h-369l-282 961h321zM954 1075h-260l-264 334h363z" />
    <glyph glyph-name="Wacute" unicode="&#x1e82;" horiz-adv-x="2062" 
d="M807 0h-418l-366 1358h331l267 -1010l278 989h262l281 -989l264 1010h334l-367 -1358h-418l-225 743zM1063 1806h362l-264 -333h-260z" />
    <glyph glyph-name="wacute" unicode="&#x1e83;" horiz-adv-x="1650" 
d="M514 328l188 612h246l187 -612l168 633h321l-283 -961h-368l-148 481l-147 -481h-369l-282 961h321zM858 1409h363l-265 -334h-260z" />
    <glyph glyph-name="Wdieresis" unicode="&#x1e84;" horiz-adv-x="2062" 
d="M807 0h-418l-366 1358h331l267 -1010l278 989h262l281 -989l264 1010h334l-367 -1358h-418l-225 743zM1219 1489q-67 0 -109.5 41.5t-42.5 107.5q0 68 42.5 111t109.5 43t110 -43t43 -111q0 -66 -42.5 -107.5t-110.5 -41.5zM842 1489q-67 0 -109.5 41.5t-42.5 107.5
q0 68 42.5 111t109.5 43t109 -43t42 -111q0 -66 -42 -107.5t-109 -41.5z" />
    <glyph glyph-name="wdieresis" unicode="&#x1e85;" horiz-adv-x="1650" 
d="M514 328l188 612h246l187 -612l168 633h321l-283 -961h-368l-148 481l-147 -481h-369l-282 961h321zM1014 1090q-68 0 -110 42t-42 109t42 109.5t110 42.5t110.5 -42.5t42.5 -109.5t-42.5 -109t-110.5 -42zM637 1090q-68 0 -110 42t-42 109t42.5 109.5t109.5 42.5
t109 -42t42 -110q0 -67 -42 -109t-109 -42z" />
    <glyph glyph-name="uni1E9E" unicode="&#x1e9e;" horiz-adv-x="1398" 
d="M1243 1006l-227 -220q153 -37 239 -141.5t86 -251.5q0 -57 -15 -113t-51 -111t-89.5 -96.5t-136.5 -67t-185 -25.5q-172 0 -278 32l35 291q102 -31 204 -31q74 0 122 43.5t48 104.5q0 73 -64 115.5t-183 42.5q-37 0 -86 -7h-11v193l293 285q-25 13 -74 22.5t-94 9.5
q-177 0 -260.5 -81t-83.5 -242v-758h-328v735q0 315 166.5 479t491.5 164q136 0 263 -39.5t218 -105.5v-227z" />
    <glyph glyph-name="Adotbelow" unicode="&#x1ea0;" horiz-adv-x="1482" 
d="M741 1028l-192 -522h387zM1120 0l-92 250h-573l-93 -250h-352l537 1358h389l537 -1358h-353zM567 -285q0 71 51.5 122.5t120.5 51.5q73 0 124.5 -51t51.5 -123q0 -73 -51.5 -121.5t-124.5 -48.5q-71 0 -121.5 50.5t-50.5 119.5z" />
    <glyph glyph-name="adotbelow" unicode="&#x1ea1;" horiz-adv-x="1191" 
d="M1096 961v-961h-305l-11 100q-99 -120 -282 -120q-194 0 -320 141q-125 143 -125 358q0 216 125 359t320 143q183 0 282 -123l11 103h305zM573 700q-91 0 -149 -61q-57 -60 -57 -160t57 -160q58 -61 147 -61q92 0 150.5 61.5t58.5 159.5q0 97 -57.5 158.5t-149.5 62.5z
M342 -285q0 71 51 122.5t121 51.5q73 0 124.5 -51t51.5 -123q0 -73 -51.5 -121.5t-124.5 -48.5q-72 0 -122 50.5t-50 119.5z" />
    <glyph glyph-name="Edotbelow" unicode="&#x1eb8;" horiz-adv-x="1206" 
d="M442 276h707v-276h-1036v1358h1026v-277h-697v-252h617v-276h-617v-277zM475 -285q0 72 51 123t123 51q73 0 124.5 -51t51.5 -123q0 -73 -51.5 -121.5t-124.5 -48.5q-72 0 -123 50.5t-51 119.5z" />
    <glyph glyph-name="edotbelow" unicode="&#x1eb9;" horiz-adv-x="1067" 
d="M360 584h359q0 61 -47 103t-121 42q-83 0 -134 -40t-57 -105zM938 301l43 -235q-65 -37 -162 -61.5t-196 -24.5q-268 0 -418 135q-152 140 -152 364q0 226 137 363q139 139 355 139q108 0 199.5 -36.5t158 -105.5t94 -183t2.5 -257h-639q10 -75 82 -114t183 -39
q89 0 175.5 15.5t137.5 39.5zM408 -285q0 72 51 123t123 51t124 -51t52 -123t-52.5 -121t-123.5 -49q-72 0 -123 50.5t-51 119.5z" />
    <glyph glyph-name="Etilde" unicode="&#x1ebc;" horiz-adv-x="1206" 
d="M442 276h707v-276h-1036v1358h1026v-277h-697v-252h617v-276h-617v-277zM373 1493l-115 104q112 207 258 207q43 0 137 -49q96 -47 123 -47q57 0 113 86l115 -104q-109 -207 -259 -207q-49 0 -135 47q-85 49 -125 49q-47 0 -112 -86z" />
    <glyph glyph-name="etilde" unicode="&#x1ebd;" horiz-adv-x="1067" 
d="M360 584h359q0 61 -47 103t-121 42q-83 0 -134 -40t-57 -105zM938 301l43 -235q-65 -37 -162 -61.5t-196 -24.5q-268 0 -418 135q-152 140 -152 364q0 226 137 363q139 139 355 139q108 0 199.5 -36.5t158 -105.5t94 -183t2.5 -257h-639q10 -75 82 -114t183 -39
q89 0 175.5 15.5t137.5 39.5zM295 1096l-115 102q111 209 258 209q43 0 137 -49q96 -47 123 -47q57 0 113 86l115 -105q-112 -207 -258 -207q-48 0 -136 48q-85 49 -124 49q-48 0 -113 -86z" />
    <glyph glyph-name="Idotbelow" unicode="&#x1eca;" horiz-adv-x="555" 
d="M113 1358h329v-1358h-329v1358zM102 -285q0 72 51 123t123 51t124.5 -51t52.5 -123t-53 -121t-124 -49q-72 0 -123 50.5t-51 119.5z" />
    <glyph glyph-name="idotbelow" unicode="&#x1ecb;" horiz-adv-x="505" 
d="M94 961h316v-961h-316v961zM252 1083q-77 0 -124.5 48t-47.5 124t47.5 124t124.5 48q75 0 124.5 -48.5t49.5 -123.5t-49.5 -123.5t-124.5 -48.5zM78 -285q0 72 51 123t123 51t123 -51t51 -123t-52 -121t-122 -49q-73 0 -123.5 50t-50.5 120z" />
    <glyph glyph-name="Odotbelow" unicode="&#x1ecc;" horiz-adv-x="1562" 
d="M59 682q-2 149 52 279.5t149.5 222.5t231 144t290.5 50q208 3 374 -87t258 -251t89 -360q3 -201 -89 -362t-258 -250.5t-374 -87.5q-319 0 -522 194q-201 198 -201 508zM393 680q0 -175 109 -287q107 -110 284 -110q171 0 275 110q106 109 106 287q0 177 -106 283
q-104 110 -275 110q-177 0 -284 -110q-109 -109 -109 -283zM612 -285q0 71 51 122.5t121 51.5q73 0 125 -51t52 -123q0 -73 -52 -121.5t-125 -48.5q-72 0 -122 50.5t-50 119.5z" />
    <glyph glyph-name="odotbelow" unicode="&#x1ecd;" horiz-adv-x="1136" 
d="M199 838q146 143 368 143q226 0 369 -143q147 -144 147 -359q0 -214 -147 -358q-144 -141 -369 -141q-221 0 -368 141q-148 145 -148 358q0 214 148 359zM715 639q-58 61 -148 61q-89 0 -147 -61q-55 -61 -55 -160q0 -96 55 -160q58 -61 147 -61q90 0 148 61
q57 63 57 160q0 100 -57 160zM393 -285q0 71 51.5 122.5t120.5 51.5q73 0 124.5 -51t51.5 -123q0 -73 -51.5 -121.5t-124.5 -48.5q-71 0 -121.5 50.5t-50.5 119.5z" />
    <glyph glyph-name="Udotbelow" unicode="&#x1ee4;" horiz-adv-x="1406" 
d="M104 489v869h330v-850q0 -120 71.5 -182t196.5 -62q127 0 199 62.5t72 181.5v850h330v-869q0 -104 -32.5 -190t-88.5 -144.5t-132.5 -98.5t-163.5 -58t-184 -18q-173 0 -305.5 54t-212.5 170.5t-80 284.5zM528 -285q0 71 51 122.5t121 51.5q73 0 125 -51t52 -123
q0 -73 -52 -121.5t-125 -48.5q-72 0 -122 50.5t-50 119.5z" />
    <glyph glyph-name="udotbelow" unicode="&#x1ee5;" horiz-adv-x="1105" 
d="M705 426v535h315v-560q0 -186 -131 -305q-128 -116 -340 -116q-213 0 -338 116t-125 299v566h315v-535q0 -71 42 -115.5t106 -44.5q70 0 113 43.5t43 116.5zM379 -285q0 72 50 123t122 51q73 0 124.5 -51t51.5 -123q0 -73 -51.5 -121.5t-124.5 -48.5q-71 0 -121.5 50.5
t-50.5 119.5z" />
    <glyph glyph-name="Ygrave" unicode="&#x1ef2;" horiz-adv-x="1501" 
d="M918 0h-330v506l-578 852h393l355 -518l358 518h375l-573 -852v-506zM881 1473h-260l-265 333h363z" />
    <glyph glyph-name="ygrave" unicode="&#x1ef3;" horiz-adv-x="1138" 
d="M403 0l-385 961h351l202 -644l199 644h352l-444 -1102q-56 -138 -162 -208.5t-248 -70.5q-106 0 -207 49l43 248q58 -24 113 -24q69 0 117.5 37.5t68.5 109.5zM690 1075h-262l-262 334h362z" />
    <glyph glyph-name="Ytilde" unicode="&#x1ef8;" horiz-adv-x="1501" 
d="M918 0h-330v506l-578 852h393l355 -518l358 518h375l-573 -852v-506zM494 1493l-115 104q112 207 258 207q43 0 137 -49q96 -47 123 -47q57 0 113 86l114 -104q-109 -207 -258 -207q-49 0 -135 47q-85 49 -125 49q-47 0 -112 -86z" />
    <glyph glyph-name="ytilde" unicode="&#x1ef9;" horiz-adv-x="1138" 
d="M403 0l-385 961h351l202 -644l199 644h352l-444 -1102q-56 -138 -162 -208.5t-248 -70.5q-106 0 -207 49l43 248q58 -24 113 -24q69 0 117.5 37.5t68.5 109.5zM303 1096l-115 102q111 209 258 209q44 0 138 -49q96 -47 123 -47q56 0 112 86l115 -105q-112 -207 -258 -207
q-47 0 -135 48q-85 49 -125 49q-48 0 -113 -86z" />
    <glyph glyph-name="uni2000" unicode="&#x2000;" horiz-adv-x="1146" 
 />
    <glyph glyph-name="uni2001" unicode="&#x2001;" horiz-adv-x="2293" 
 />
    <glyph glyph-name="uni2002" unicode="&#x2002;" horiz-adv-x="1146" 
 />
    <glyph glyph-name="uni2003" unicode="&#x2003;" horiz-adv-x="2293" 
 />
    <glyph glyph-name="uni2004" unicode="&#x2004;" horiz-adv-x="763" 
 />
    <glyph glyph-name="uni2005" unicode="&#x2005;" horiz-adv-x="573" 
 />
    <glyph glyph-name="uni2006" unicode="&#x2006;" horiz-adv-x="382" 
 />
    <glyph glyph-name="uni2007" unicode="&#x2007;" horiz-adv-x="382" 
 />
    <glyph glyph-name="uni2008" unicode="&#x2008;" horiz-adv-x="286" 
 />
    <glyph glyph-name="uni2009" unicode="&#x2009;" horiz-adv-x="458" 
 />
    <glyph glyph-name="uni200A" unicode="&#x200a;" horiz-adv-x="126" 
 />
    <glyph glyph-name="uni2010" unicode="&#x2010;" horiz-adv-x="892" 
d="M82 668h729v-244h-729v244z" />
    <glyph glyph-name="uni2011" unicode="&#x2011;" horiz-adv-x="892" 
d="M82 668h729v-244h-729v244z" />
    <glyph glyph-name="figuredash" unicode="&#x2012;" horiz-adv-x="892" 
d="M82 668h729v-244h-729v244z" />
    <glyph glyph-name="endash" unicode="&#x2013;" horiz-adv-x="1187" 
d="M82 668h1024v-244h-1024v244z" />
    <glyph glyph-name="emdash" unicode="&#x2014;" horiz-adv-x="2211" 
d="M82 668h2048v-244h-2048v244z" />
    <glyph glyph-name="quoteleft" unicode="&#x2018;" horiz-adv-x="540" 
d="M502 1427l-137 -516h-314l223 516h228z" />
    <glyph glyph-name="quoteright" unicode="&#x2019;" horiz-adv-x="534" 
d="M57 911l138 516h311l-223 -516h-226z" />
    <glyph glyph-name="quotesinglbase" unicode="&#x201a;" horiz-adv-x="534" 
d="M12 -283l138 516h313l-195 -516h-256z" />
    <glyph glyph-name="quotedblleft" unicode="&#x201c;" horiz-adv-x="997" 
d="M502 1427l-137 -516h-314l223 516h228zM956 1427l-137 -516h-311l223 516h225z" />
    <glyph glyph-name="quotedblright" unicode="&#x201d;" horiz-adv-x="980" 
d="M57 911l138 516h311l-223 -516h-226zM502 911l137 516h311l-223 -516h-225z" />
    <glyph glyph-name="quotedblbase" unicode="&#x201e;" horiz-adv-x="983" 
d="M14 -285l138 516h311l-223 -516h-226zM459 -285l137 516h311l-223 -516h-225z" />
    <glyph glyph-name="dagger" unicode="&#x2020;" horiz-adv-x="796" 
d="M520 1358h230v-215h-230v-635h-246v635h-227v215h227v250h246v-250z" />
    <glyph glyph-name="daggerdbl" unicode="&#x2021;" horiz-adv-x="839" 
d="M543 901h227v-215h-227v-209h-248v209h-225v215h225v311h-225v215h225v211h248v-211h227v-215h-227v-311z" />
    <glyph glyph-name="bullet" unicode="&#x2022;" horiz-adv-x="768" 
d="M670 672q0 -115 -84 -199q-82 -82 -203 -82q-120 0 -203 80q-82 82 -82 201t82 198q82 82 203 82t203 -82q84 -81 84 -198z" />
    <glyph glyph-name="ellipsis" unicode="&#x2026;" horiz-adv-x="1527" 
d="M66 150q0 73 51 123.5t123 50.5t124 -51t52 -123q0 -71 -53 -120.5t-123 -49.5q-72 0 -123 50.5t-51 119.5zM588 150q0 73 51 123.5t123 50.5t124 -51t52 -123q0 -71 -53 -120.5t-123 -49.5q-73 0 -123.5 50t-50.5 120zM1112 150q0 73 51 123.5t123 50.5q73 0 124.5 -51
t51.5 -123q0 -71 -51.5 -120.5t-124.5 -49.5q-72 0 -123 50.5t-51 119.5z" />
    <glyph glyph-name="uni202F" unicode="&#x202f;" horiz-adv-x="458" 
 />
    <glyph glyph-name="perthousand" unicode="&#x2030;" horiz-adv-x="2729" 
d="M86 1001q0 162 107 269q108 108 270 108q166 0 274 -108q109 -109 109 -269q0 -157 -109 -266q-106 -106 -274 -106q-164 0 -270 106q-107 107 -107 266zM1034 352q0 162 107 269q108 108 272 108q165 0 273 -108t108 -269q0 -158 -108 -266q-106 -106 -273 -106
q-166 0 -272 106q-107 107 -107 266zM1874 352q0 163 106 269q108 108 273 108q164 0 272 -108q109 -109 109 -269q0 -157 -109 -266q-106 -106 -272 -106q-167 0 -273 106t-106 266zM657 0h-168v27l736 1331h164v-25zM1264 352q0 -64 42 -107.5t107 -43.5q63 0 105.5 44
t42.5 107q0 66 -42.5 111t-105.5 45q-65 0 -107 -44.5t-42 -111.5zM2103 352q0 -64 42.5 -107.5t107.5 -43.5q63 0 105 44t42 107q0 66 -42 111t-105 45q-65 0 -107.5 -44.5t-42.5 -111.5zM313 1001q0 -64 43.5 -107.5t108.5 -43.5q62 0 103.5 43.5t41.5 107.5q0 66 -41 111
t-104 45q-66 0 -109 -45t-43 -111z" />
    <glyph glyph-name="guilsinglleft" unicode="&#x2039;" horiz-adv-x="636" 
d="M328 479l254 -393h-260l-273 393l273 395h260z" />
    <glyph glyph-name="guilsinglright" unicode="&#x203a;" horiz-adv-x="636" 
d="M55 874h260l273 -395l-273 -393h-260l254 393z" />
    <glyph glyph-name="fraction" unicode="&#x2044;" horiz-adv-x="194" 
d="M-182 0h-166v27l733 1331h166v-25z" />
    <glyph glyph-name="uni205F" unicode="&#x205f;" horiz-adv-x="573" 
 />
    <glyph glyph-name="zerosuperior" unicode="&#x2070;" horiz-adv-x="813" 
d="M49 952q0 90 20.5 165.5t62.5 134.5t112.5 92.5t163.5 33.5q76 0 137.5 -24t101.5 -64t67 -95.5t38.5 -115.5t11.5 -127q0 -87 -20.5 -160t-62.5 -130t-111.5 -89t-161.5 -32t-162.5 32t-112.5 89t-63 130t-21 160zM256 961q0 -104 39.5 -169t112.5 -65q72 0 109.5 65
t37.5 169t-38 167.5t-109 63.5q-75 0 -113.5 -64.5t-38.5 -166.5z" />
    <glyph glyph-name="foursuperior" unicode="&#x2074;" horiz-adv-x="759" 
d="M276 1358h218l-238 -461h170v160h192v-160h109v-178h-109v-174h-198v174h-389v147z" />
    <glyph glyph-name="fivesuperior" unicode="&#x2075;" horiz-adv-x="712" 
d="M324 532q-151 0 -283 60l31 182q111 -57 229 -57q143 0 143 94q0 100 -155 100q-95 0 -172 -24l-45 35l55 436h506v-184h-338l-10 -97q16 2 49 2q150 0 242 -69t92 -191q0 -143 -90.5 -215t-253.5 -72z" />
    <glyph glyph-name="sixsuperior" unicode="&#x2076;" horiz-adv-x="761" 
d="M674 1333l-19 -176q-103 47 -192 47q-77 0 -128.5 -40t-68.5 -122q72 60 176 60q112 0 195 -74q84 -72 84 -192q0 -138 -90.5 -216.5t-241.5 -78.5q-71 0 -128 19.5t-96 54t-65.5 82.5t-38.5 104t-12 119q0 220 104 339t300 119q122 0 221 -45zM391 938q-50 0 -84.5 -30
t-34.5 -77t34.5 -77.5t84.5 -30.5q51 0 86 30.5t35 77.5t-34.5 77t-86.5 30z" />
    <glyph glyph-name="sevensuperior" unicode="&#x2077;" horiz-adv-x="645" 
d="M623 1210l-314 -665h-237l313 624h-354v189h592v-148z" />
    <glyph glyph-name="eightsuperior" unicode="&#x2078;" horiz-adv-x="770" 
d="M264 803q-5 -55 58 -78t126 0t58 78q5 57 -58 80.5t-126 0t-58 -80.5zM49 786q0 130 121 195q-102 59 -102 166q0 79 48 133t117 76t152 22t152 -22.5t117 -76.5t48 -132q0 -111 -104 -166q123 -65 123 -195q0 -53 -20 -95.5t-52.5 -70t-77 -45.5t-91 -26t-95.5 -8
t-95.5 8t-91 26t-77 45.5t-52.5 70t-20 95.5zM283 1130q-8 -51 47 -72.5t110.5 0t48.5 72.5q0 31 -30 52.5t-74 21.5q-46 0 -74 -21t-28 -53z" />
    <glyph glyph-name="ninesuperior" unicode="&#x2079;" horiz-adv-x="761" 
d="M88 586l18 176q103 -47 193 -47q77 0 128.5 40t68.5 122q-72 -60 -177 -60q-110 0 -194 72q-84 75 -84 194q0 138 90.5 216.5t241.5 78.5q71 0 128 -19.5t96 -54t65.5 -82.5t38.5 -104t12 -119q0 -220 -104 -339t-300 -119q-122 0 -221 45zM371 981q50 0 84 29.5t34 76.5
t-34 78t-84 31q-51 0 -86 -31t-35 -78t34.5 -76.5t86.5 -29.5z" />
    <glyph glyph-name="zeroinferior" unicode="&#x2080;" horiz-adv-x="813" 
d="M49 391q0 90 20.5 165.5t62.5 134.5t112.5 92.5t163.5 33.5q76 0 137.5 -24t101.5 -64t67 -95.5t38.5 -115.5t11.5 -127q0 -87 -20.5 -160t-62.5 -130t-111.5 -89t-161.5 -32t-162.5 32t-112.5 89t-63 130t-21 160zM256 399q0 -104 39.5 -168.5t112.5 -64.5
q72 0 109.5 65t37.5 168q0 104 -38 168t-109 64q-75 0 -113.5 -65t-38.5 -167z" />
    <glyph glyph-name="oneinferior" unicode="&#x2081;" horiz-adv-x="497" 
d="M422 0h-211v629h-186v184h397v-813z" />
    <glyph glyph-name="twoinferior" unicode="&#x2082;" horiz-adv-x="686" 
d="M338 184h305v-184h-600v156l270 233q90 81 90 160q0 90 -120 90q-49 0 -108.5 -16t-98.5 -37l-27 182q123 57 254 57q65 0 120 -14t100.5 -43.5t71.5 -82.5t26 -124q0 -94 -58 -170q-53 -73 -225 -207z" />
    <glyph glyph-name="threeinferior" unicode="&#x2083;" horiz-adv-x="710" 
d="M201 324v133l164 164h-287v184h553v-154l-189 -180q103 -12 165.5 -75t62.5 -156q0 -72 -28 -124t-77.5 -81t-109 -42t-131.5 -13q-160 0 -285 61l20 182q115 -59 250 -59q148 0 148 82q0 86 -160 86q-49 0 -96 -8z" />
    <glyph glyph-name="fourinferior" unicode="&#x2084;" horiz-adv-x="759" 
d="M276 813h220l-238 -459h168v158h192v-158h111v-180h-111v-174h-198v174h-387v148z" />
    <glyph glyph-name="fiveinferior" unicode="&#x2085;" horiz-adv-x="712" 
d="M324 -20q-153 0 -283 59l31 182q111 -57 229 -57q143 0 143 94q0 100 -155 100q-95 0 -172 -24l-45 35l55 436h506v-184h-338l-10 -97q16 2 49 2q150 0 242 -69t92 -191q0 -143 -90.5 -214.5t-253.5 -71.5z" />
    <glyph glyph-name="sixinferior" unicode="&#x2086;" horiz-adv-x="761" 
d="M674 772l-19 -176q-103 47 -192 47q-77 0 -128.5 -40t-68.5 -122q72 60 176 60q112 0 195 -74q84 -72 84 -193q0 -138 -90.5 -216t-241.5 -78q-88 0 -155 30t-106.5 82.5t-59 119.5t-19.5 146q0 221 104 340t300 119q122 0 221 -45zM391 379q-50 0 -84.5 -31t-34.5 -78
t34.5 -77.5t84.5 -30.5q51 0 86 30.5t35 77.5t-35 78t-86 31z" />
    <glyph glyph-name="seveninferior" unicode="&#x2087;" horiz-adv-x="643" 
d="M623 666l-314 -666h-237l313 625h-354v188h592v-147z" />
    <glyph glyph-name="eightinferior" unicode="&#x2088;" horiz-adv-x="770" 
d="M264 242q-5 -55 58 -78t126 0t58 78q5 57 -58 80.5t-126 0t-58 -80.5zM49 225q0 130 121 195q-102 58 -102 166q0 79 48 133t117 76t152 22t152 -22.5t117 -76.5t48 -132q0 -111 -104 -166q123 -64 123 -195q0 -53 -20 -95.5t-52.5 -70t-77 -45.5t-91 -26t-95.5 -8
t-95.5 8t-91 26t-77 45.5t-52.5 70t-20 95.5zM283 569q-8 -51 47 -72.5t110.5 0t48.5 72.5q0 31 -30 52.5t-74 21.5q-46 0 -74 -21t-28 -53z" />
    <glyph glyph-name="nineinferior" unicode="&#x2089;" horiz-adv-x="761" 
d="M88 25l18 176q103 -47 193 -47q77 0 128.5 39.5t68.5 121.5q-71 -59 -177 -59q-110 0 -194 72q-84 75 -84 194q0 138 90.5 216.5t241.5 78.5q71 0 128 -19.5t96 -54t65.5 -82.5t38.5 -104t12 -119q0 -220 -104 -339t-300 -119q-122 0 -221 45zM371 420q50 0 84 29.5
t34 76.5t-34 79t-84 32q-51 0 -86 -32t-35 -79t34.5 -76.5t86.5 -29.5z" />
    <glyph glyph-name="Euro" unicode="&#x20ac;" horiz-adv-x="1413" 
d="M231 438h-190v170h158q-2 23 -2 99h-156v172h178q41 160 147 273t250.5 167.5t317.5 54.5q192 0 369 -71l-31 -283q-139 53 -293 53q-143 0 -248 -49t-158 -145h453l-27 -172h-469q-3 -39 5 -99h452l-20 -170h-373q53 -84 147 -127t215 -43q185 0 367 92l35 -276
q-108 -55 -215 -79.5t-238 -24.5q-244 0 -424 122q-178 121 -250 336z" />
    <glyph glyph-name="trademark" unicode="&#x2122;" horiz-adv-x="1507" 
d="M862 1120v-338h-186v625h170l198 -240l197 240h170v-625h-184v338l-168 -194h-27zM426 782h-205v455h-178v170h559v-170h-176v-455z" />
    <glyph glyph-name="estimated" unicode="&#x212e;" horiz-adv-x="1654" 
d="M1614 668v-23h-1258q-12 0 -12 -8v-361q0 -23 18 -47q185 -176 478 -176q150 0 279.5 51.5t219.5 147.5h113q-106 -127 -267 -199.5t-347 -72.5q-158 -3 -303.5 52.5t-250.5 150t-166 224t-57 269.5q-3 141 59.5 272t168.5 226t250.5 151t298.5 53q157 0 301 -57
t248 -152.5t165.5 -226.5t61.5 -274zM1327 725v358q0 25 -16 47q-85 84 -209 129.5t-262 45.5q-294 0 -475 -175q-21 -24 -21 -53v-352q0 -12 12 -12h967q4 0 4 12z" />
    <glyph glyph-name="onethird" unicode="&#x2153;" horiz-adv-x="1679" 
d="M477 0h-168v27l735 1331h164v-25zM1178 324v133l163 164h-286v184h553v-154l-189 -180q103 -12 165.5 -75t62.5 -156q0 -72 -28 -124t-78 -81t-109.5 -42t-131.5 -13q-159 0 -284 61l20 182q115 -59 250 -59q148 0 148 82q0 86 -160 86q-49 0 -96 -8zM440 545h-211v629
h-186v184h397v-813z" />
    <glyph glyph-name="twothirds" unicode="&#x2154;" horiz-adv-x="1896" 
d="M686 0h-166v27l733 1331h166v-25zM375 737h307v-184h-600v156l268 233q90 81 90 158q0 92 -121 92q-48 0 -107.5 -16.5t-98.5 -38.5l-27 182q127 59 254 59q65 0 120 -14t100.5 -44t71 -83t25.5 -125q0 -93 -57 -168q-58 -80 -225 -207zM1391 324v133l163 164h-288v184
h555v-154l-189 -180q101 -12 164.5 -75t63.5 -156q0 -72 -28 -124t-78.5 -81t-110 -42t-130.5 -13q-158 0 -286 61l22 182q115 -59 250 -59q146 0 146 82q0 86 -158 86q-49 0 -96 -8z" />
    <glyph glyph-name="minus" unicode="&#x2212;" horiz-adv-x="1148" 
d="M1063 821v-282h-977v282h977z" />
    <glyph glyph-name="uni2215" unicode="&#x2215;" horiz-adv-x="835" 
d="M139 0h-168v27l736 1331h163v-25z" />
    <glyph glyph-name="uni2219" unicode="&#x2219;" horiz-adv-x="626" 
d="M188 391q-50 49 -50 123t50 123q51 49 124.5 49t123.5 -49q51 -49 51 -123t-51 -123q-50 -49 -123.5 -49t-124.5 49z" />
    <glyph glyph-name="approxequal" unicode="&#x2248;" horiz-adv-x="1380" 
d="M217 723l-141 213q201 201 389 201q75 0 137.5 -21.5t99 -46.5t92.5 -46.5t121 -21.5q74 0 129.5 21.5t118.5 75.5l142 -203q-200 -203 -387 -203q-131 0 -232 68q-97 69 -219 69q-126 0 -250 -106zM217 252l-141 213q201 201 387 201q63 0 114.5 -14t87 -34t70.5 -40
t80.5 -34t99.5 -14q74 0 129.5 21.5t118.5 75.5l142 -203q-201 -201 -387 -201q-133 0 -234 68q-40 28 -98 47.5t-121 19.5q-124 0 -248 -106z" />
    <glyph glyph-name="notequal" unicode="&#x2260;" horiz-adv-x="1257" 
d="M553 307l-188 -418l-154 66l158 352h-283v287h412l75 172h-487v287h616l185 413l160 -59l-160 -354h284v-287h-413l-76 -172h489v-287h-618z" />
    <glyph glyph-name="lessequal" unicode="&#x2264;" horiz-adv-x="1290" 
d="M489 739h701v-278h-1098v383l1077 514v-340zM82 274h1114v-274h-1114v274z" />
    <glyph glyph-name="greaterequal" unicode="&#x2265;" horiz-adv-x="1292" 
d="M1200 461h-1098v278h701l-680 279v340l1077 -514v-383zM1210 0h-1116v274h1116v-274z" />
    <glyph glyph-name="uni25FC" unicode="&#x25fc;" horiz-adv-x="960" 
d="M0 0v961h961v-961h-961z" />
    <glyph glyph-name="commaaccent" unicode="&#xf6c3;" horiz-adv-x="489" 
d="M322 -539h-226v443h297z" />
    <glyph glyph-name="NULL" horiz-adv-x="0" 
 />
    <glyph glyph-name="CR" horiz-adv-x="681" 
 />
    <glyph glyph-name="_443" horiz-adv-x="0" 
 />
    <glyph glyph-name="A.alt" horiz-adv-x="1425" 
d="M1321 0h-330v344h-559v-344h-328v809q0 269 160.5 419t448.5 150t448 -151t160 -418v-809zM432 793v-172h559v172q0 139 -71.5 212.5t-206.5 73.5q-136 0 -208.5 -73.5t-72.5 -212.5z" />
    <glyph glyph-name="A.alt.smcp" horiz-adv-x="1128" 
d="M1047 602v-602h-316v225h-334v-225h-313v602q0 188 133 309q131 119 348 119q215 0 346 -119q136 -121 136 -309zM397 582v-101h334v101q0 75 -46.5 122.5t-119.5 47.5q-74 0 -121 -47.5t-47 -122.5z" />
    <glyph glyph-name="A.smcp" horiz-adv-x="1173" 
d="M1161 0h-332l-57 166h-371l-57 -166h-332l391 1010h367zM690 403l-102 302l-107 -302h209z" />
    <glyph glyph-name="A.swsh" horiz-adv-x="1853" 
d="M1493 0l-92 250h-576l-92 -250h-352l428 1085h-55q-245 0 -354 -113.5t-111 -357.5l-258 72q-16 144 21.5 266t124.5 213t232 142t334 51h564l536 -1358q212 -496 674 -496q47 0 72 2l-43 -272q-27 -2 -90 -2q-110 0 -214.5 23.5t-213.5 79.5t-203.5 142t-181.5 219.5
t-150 303.5zM1112 1028l-192 -522h387z" />
    <glyph glyph-name="AE.smcp" horiz-adv-x="1558" 
d="M1018 256h487v-256h-803v166h-335l-91 -166h-309l559 1010h975v-256h-483v-119h436v-246h-436v-133zM702 786l-208 -383h208v383z" />
    <glyph glyph-name="AEacute.smcp" horiz-adv-x="1558" 
d="M1018 256h487v-256h-803v166h-335l-91 -166h-309l559 1010h975v-256h-483v-119h436v-246h-436v-133zM1032 1430h363l-262 -334h-263zM702 786l-208 -383h208v383z" />
    <glyph glyph-name="Aacute.alt" horiz-adv-x="1425" 
d="M1321 0h-330v344h-559v-344h-328v809q0 269 160.5 419t448.5 150t448 -151t160 -418v-809zM432 793v-172h559v172q0 139 -71.5 212.5t-206.5 73.5q-136 0 -208.5 -73.5t-72.5 -212.5zM731 1806h363l-265 -333h-260z" />
    <glyph glyph-name="Aacute.alt.smcp" horiz-adv-x="1128" 
d="M1047 602v-602h-316v225h-334v-225h-313v602q0 188 133 309q131 119 348 119q215 0 346 -119q136 -121 136 -309zM610 1430h363l-264 -334h-260zM397 582v-101h334v101q0 75 -46.5 122.5t-119.5 47.5q-74 0 -121 -47.5t-47 -122.5z" />
    <glyph glyph-name="Aacute.smcp" horiz-adv-x="1173" 
d="M627 1430h360l-262 -334h-260zM1161 0h-332l-57 166h-371l-57 -166h-332l391 1010h367zM690 403l-102 302l-107 -302h209z" />
    <glyph glyph-name="Aacute.swsh" horiz-adv-x="1853" 
d="M1493 0l-92 250h-576l-92 -250h-352l428 1085h-55q-245 0 -354 -113.5t-111 -357.5l-258 72q-16 144 21.5 266t124.5 213t232 142t334 51h564l536 -1358q212 -496 674 -496q47 0 72 2l-43 -272q-27 -2 -90 -2q-110 0 -214.5 23.5t-213.5 79.5t-203.5 142t-181.5 219.5
t-150 303.5zM1112 1028l-192 -522h387zM1118 1806h363l-262 -333h-263z" />
    <glyph glyph-name="Abreve.alt" horiz-adv-x="1425" 
d="M1321 0h-330v344h-559v-344h-328v809q0 269 160.5 419t448.5 150t448 -151t160 -418v-809zM432 793v-172h559v172q0 139 -71.5 212.5t-206.5 73.5q-136 0 -208.5 -73.5t-72.5 -212.5zM395 1792h209q2 -56 34 -91.5t81 -35.5q51 0 82 35t33 92h208q-6 -147 -94.5 -235.5
t-228.5 -88.5t-229 89t-95 235z" />
    <glyph glyph-name="Abreve.alt.smcp" horiz-adv-x="1128" 
d="M1047 602v-602h-316v225h-334v-225h-313v602q0 188 133 309q131 119 348 119q215 0 346 -119q136 -121 136 -309zM240 1415h211q2 -57 32.5 -93t79.5 -36q51 0 82 36t33 93h211q-8 -148 -96.5 -236.5t-229.5 -88.5q-137 0 -226.5 89t-96.5 236zM397 582v-101h334v101
q0 75 -46.5 122.5t-119.5 47.5q-74 0 -121 -47.5t-47 -122.5z" />
    <glyph glyph-name="Abreve.smcp" horiz-adv-x="1173" 
d="M262 1415h211q2 -57 34 -93t81 -36q50 0 80 35.5t32 93.5h211q-8 -148 -96 -236.5t-227 -88.5q-140 0 -229.5 89t-96.5 236zM1161 0h-332l-57 166h-371l-57 -166h-332l391 1010h367zM690 403l-102 302l-107 -302h209z" />
    <glyph glyph-name="Abreve.swsh" horiz-adv-x="1853" 
d="M1493 0l-92 250h-576l-92 -250h-352l428 1085h-55q-245 0 -354 -113.5t-111 -357.5l-258 72q-16 144 21.5 266t124.5 213t232 142t334 51h564l536 -1358q212 -496 674 -496q47 0 72 2l-43 -272q-27 -2 -90 -2q-110 0 -214.5 23.5t-213.5 79.5t-203.5 142t-181.5 219.5
t-150 303.5zM1112 1028l-192 -522h387zM786 1792h211q1 -55 33.5 -91t79.5 -36q51 0 82 35t33 92h211q-7 -148 -96 -236t-230 -88q-137 0 -227 89t-97 235z" />
    <glyph glyph-name="Acircumflex.alt" horiz-adv-x="1425" 
d="M1321 0h-330v344h-559v-344h-328v809q0 269 160.5 419t448.5 150t448 -151t160 -418v-809zM432 793v-172h559v172q0 139 -71.5 212.5t-206.5 73.5q-136 0 -208.5 -73.5t-72.5 -212.5zM805 1841l287 -371h-265l-120 170l-121 -170h-264l286 371h197z" />
    <glyph glyph-name="Acircumflex.alt.smcp" horiz-adv-x="1128" 
d="M1047 602v-602h-316v225h-334v-225h-313v602q0 188 133 309q131 119 348 119q215 0 346 -119q136 -121 136 -309zM662 1462l286 -368h-264l-121 168l-121 -168h-264l289 368h195zM397 582v-101h334v101q0 75 -46.5 122.5t-119.5 47.5q-74 0 -121 -47.5t-47 -122.5z" />
    <glyph glyph-name="Acircumflex.smcp" horiz-adv-x="1173" 
d="M684 1462l289 -368h-264l-121 168l-121 -168h-264l286 368h195zM1161 0h-332l-57 166h-371l-57 -166h-332l391 1010h367zM690 403l-102 302l-107 -302h209z" />
    <glyph glyph-name="Acircumflex.swsh" horiz-adv-x="1853" 
d="M1493 0l-92 250h-576l-92 -250h-352l428 1085h-55q-245 0 -354 -113.5t-111 -357.5l-258 72q-16 144 21.5 266t124.5 213t232 142t334 51h564l536 -1358q212 -496 674 -496q47 0 72 2l-43 -272q-27 -2 -90 -2q-110 0 -214.5 23.5t-213.5 79.5t-203.5 142t-181.5 219.5
t-150 303.5zM1112 1028l-192 -522h387zM1210 1841l287 -371h-262l-123 170l-121 -170h-264l289 371h194z" />
    <glyph glyph-name="Adieresis.alt" horiz-adv-x="1425" 
d="M1321 0h-330v344h-559v-344h-328v809q0 269 160.5 419t448.5 150t448 -151t160 -418v-809zM432 793v-172h559v172q0 139 -71.5 212.5t-206.5 73.5q-136 0 -208.5 -73.5t-72.5 -212.5zM895 1489q-66 0 -108 41.5t-42 107.5q0 68 42 111t108 43q69 0 111.5 -43t42.5 -111
q0 -66 -42.5 -107.5t-111.5 -41.5zM518 1489q-67 0 -109 41.5t-42 107.5q0 68 42 111t109 43q68 0 111 -43t43 -111q0 -66 -43 -107.5t-111 -41.5z" />
    <glyph glyph-name="Adieresis.alt.smcp" horiz-adv-x="1128" 
d="M1047 602v-602h-316v225h-334v-225h-313v602q0 188 133 309q131 119 348 119q215 0 346 -119q136 -121 136 -309zM397 582v-101h334v101q0 75 -46.5 122.5t-119.5 47.5q-74 0 -121 -47.5t-47 -122.5zM375 1110q-67 0 -109.5 42t-42.5 108q0 68 42.5 110.5t109.5 42.5
t110 -42.5t43 -110.5q0 -66 -43 -108t-110 -42zM754 1110q-67 0 -109.5 42t-42.5 108q0 68 42.5 110.5t109.5 42.5t109 -42.5t42 -110.5q0 -66 -42 -108t-109 -42z" />
    <glyph glyph-name="Adieresis.smcp" horiz-adv-x="1173" 
d="M774 1110q-66 0 -107.5 42t-41.5 108q0 68 41.5 110.5t107.5 42.5q69 0 111.5 -42.5t42.5 -110.5q0 -66 -42.5 -108t-111.5 -42zM397 1110q-67 0 -109 42t-42 108q0 68 42 110.5t109 42.5q68 0 111 -43t43 -110q0 -66 -43 -108t-111 -42zM1161 0h-332l-57 166h-371
l-57 -166h-332l391 1010h367zM690 403l-102 302l-107 -302h209z" />
    <glyph glyph-name="Adieresis.swsh" horiz-adv-x="1853" 
d="M1493 0l-92 250h-576l-92 -250h-352l428 1085h-55q-245 0 -354 -113.5t-111 -357.5l-258 72q-16 144 21.5 266t124.5 213t232 142t334 51h564l536 -1358q212 -496 674 -496q47 0 72 2l-43 -272q-27 -2 -90 -2q-110 0 -214.5 23.5t-213.5 79.5t-203.5 142t-181.5 219.5
t-150 303.5zM1112 1028l-192 -522h387zM1290 1489q-66 0 -107.5 41.5t-41.5 107.5q0 68 41.5 111t107.5 43q69 0 111.5 -43t42.5 -111q0 -66 -42.5 -107.5t-111.5 -41.5zM913 1489q-67 0 -109 41.5t-42 107.5q0 68 42 111t109 43t110.5 -43t43.5 -111q0 -66 -43 -107.5
t-111 -41.5z" />
    <glyph glyph-name="Adotbelow.alt" horiz-adv-x="1425" 
d="M1321 0h-330v344h-559v-344h-328v809q0 269 160.5 419t448.5 150t448 -151t160 -418v-809zM432 793v-172h559v172q0 139 -71.5 212.5t-206.5 73.5q-136 0 -208.5 -73.5t-72.5 -212.5zM535 -285q0 72 51 123t123 51t124 -51t52 -123t-52.5 -121t-123.5 -49
q-72 0 -123 50.5t-51 119.5z" />
    <glyph glyph-name="Adotbelow.alt.smcp" horiz-adv-x="1128" 
d="M1047 602v-602h-316v225h-334v-225h-313v602q0 188 133 309q131 119 348 119q215 0 346 -119q136 -121 136 -309zM389 -285q0 72 51 123t123 51q73 0 124.5 -51t51.5 -123q0 -73 -51.5 -121.5t-124.5 -48.5q-72 0 -123 50.5t-51 119.5zM397 582v-101h334v101
q0 75 -46.5 122.5t-119.5 47.5q-74 0 -121 -47.5t-47 -122.5z" />
    <glyph glyph-name="Adotbelow.smcp" horiz-adv-x="1173" 
d="M414 -285q0 72 50 123t122 51q73 0 124.5 -51t51.5 -123q0 -73 -51.5 -121.5t-124.5 -48.5q-72 0 -122 50.5t-50 119.5zM1161 0h-332l-57 166h-371l-57 -166h-332l391 1010h367zM690 403l-102 302l-107 -302h209z" />
    <glyph glyph-name="Adotbelow.swsh" horiz-adv-x="1853" 
d="M1493 0l-92 250h-576l-92 -250h-352l428 1085h-55q-245 0 -354 -113.5t-111 -357.5l-258 72q-16 144 21.5 266t124.5 213t232 142t334 51h564l536 -1358q212 -496 674 -496q47 0 72 2l-43 -272q-27 -2 -90 -2q-110 0 -214.5 23.5t-213.5 79.5t-203.5 142t-181.5 219.5
t-150 303.5zM1112 1028l-192 -522h387zM938 -285q0 71 51 122.5t121 51.5q73 0 124.5 -51t51.5 -123q0 -73 -51.5 -121.5t-124.5 -48.5q-72 0 -122 50.5t-50 119.5z" />
    <glyph glyph-name="Agrave.alt" horiz-adv-x="1425" 
d="M1321 0h-330v344h-559v-344h-328v809q0 269 160.5 419t448.5 150t448 -151t160 -418v-809zM432 793v-172h559v172q0 139 -71.5 212.5t-206.5 73.5q-136 0 -208.5 -73.5t-72.5 -212.5zM852 1473h-262l-262 333h360z" />
    <glyph glyph-name="Agrave.alt.smcp" horiz-adv-x="1128" 
d="M1047 602v-602h-316v225h-334v-225h-313v602q0 188 133 309q131 119 348 119q215 0 346 -119q136 -121 136 -309zM705 1096h-263l-262 334h363zM397 582v-101h334v101q0 75 -46.5 122.5t-119.5 47.5q-74 0 -121 -47.5t-47 -122.5z" />
    <glyph glyph-name="Agrave.smcp" horiz-adv-x="1173" 
d="M713 1096h-262l-263 334h363zM1161 0h-332l-57 166h-371l-57 -166h-332l391 1010h367zM690 403l-102 302l-107 -302h209z" />
    <glyph glyph-name="Agrave.swsh" horiz-adv-x="1853" 
d="M1493 0l-92 250h-576l-92 -250h-352l428 1085h-55q-245 0 -354 -113.5t-111 -357.5l-258 72q-16 144 21.5 266t124.5 213t232 142t334 51h564l536 -1358q212 -496 674 -496q47 0 72 2l-43 -272q-27 -2 -90 -2q-110 0 -214.5 23.5t-213.5 79.5t-203.5 142t-181.5 219.5
t-150 303.5zM1112 1028l-192 -522h387zM1253 1473h-260l-264 333h363z" />
    <glyph glyph-name="Amacron.alt" horiz-adv-x="1425" 
d="M1321 0h-330v344h-559v-344h-328v809q0 269 160.5 419t448.5 150t448 -151t160 -418v-809zM432 793v-172h559v172q0 139 -71.5 212.5t-206.5 73.5q-136 0 -208.5 -73.5t-72.5 -212.5zM401 1706h592v-205h-592v205z" />
    <glyph glyph-name="Amacron.alt.smcp" horiz-adv-x="1128" 
d="M1047 602v-602h-316v225h-334v-225h-313v602q0 188 133 309q131 119 348 119q215 0 346 -119q136 -121 136 -309zM270 1327h590v-205h-590v205zM397 582v-101h334v101q0 75 -46.5 122.5t-119.5 47.5q-74 0 -121 -47.5t-47 -122.5z" />
    <glyph glyph-name="Amacron.smcp" horiz-adv-x="1173" 
d="M293 1327h590v-205h-590v205zM1161 0h-332l-57 166h-371l-57 -166h-332l391 1010h367zM690 403l-102 302l-107 -302h209z" />
    <glyph glyph-name="Amacron.swsh" horiz-adv-x="1853" 
d="M1493 0l-92 250h-576l-92 -250h-352l428 1085h-55q-245 0 -354 -113.5t-111 -357.5l-258 72q-16 144 21.5 266t124.5 213t232 142t334 51h564l536 -1358q212 -496 674 -496q47 0 72 2l-43 -272q-27 -2 -90 -2q-110 0 -214.5 23.5t-213.5 79.5t-203.5 142t-181.5 219.5
t-150 303.5zM1112 1028l-192 -522h387zM811 1706h590v-205h-590v205z" />
    <glyph glyph-name="Aogonek.alt" horiz-adv-x="1404" 
d="M991 0v344h-559v-344h-328v809q0 269 160.5 419t448.5 150t448 -151t160 -418v-809h-111q-194 -114 -194 -195q0 -35 24.5 -55t67.5 -20q58 0 109 26l63 -176q-83 -57 -219 -57q-120 0 -190 58t-70 153q0 152 190 266zM432 793v-172h559v172q0 139 -71.5 212.5
t-206.5 73.5q-136 0 -208.5 -73.5t-72.5 -212.5z" />
    <glyph glyph-name="Aogonek.alt.smcp" horiz-adv-x="1128" 
d="M1047 602v-602h-99q-196 -114 -196 -195q0 -35 25.5 -55t68.5 -20q57 0 108 26l64 -176q-86 -57 -219 -57q-120 0 -190 58t-70 153q0 153 192 266v225h-334v-225h-313v602q0 188 133 309q131 119 348 119q215 0 346 -119q136 -121 136 -309zM397 582v-101h334v101
q0 75 -46.5 122.5t-119.5 47.5q-74 0 -121 -47.5t-47 -122.5z" />
    <glyph glyph-name="Aogonek.smcp" horiz-adv-x="1173" 
d="M829 0l-57 166h-371l-57 -166h-332l391 1010h367l391 -1010h-112q-195 -115 -195 -195q0 -35 24.5 -55t67.5 -20q58 0 109 26l63 -176q-86 -57 -219 -57q-120 0 -190 58t-70 153q0 152 190 266zM690 403l-102 302l-107 -302h209z" />
    <glyph glyph-name="Aring.alt" horiz-adv-x="1425" 
d="M1321 0h-330v344h-559v-344h-328v809q0 269 160.5 419t448.5 150t448 -151t160 -418v-809zM432 793v-172h559v172q0 139 -71.5 212.5t-206.5 73.5q-136 0 -208.5 -73.5t-72.5 -212.5zM483 1692q0 94 63 156.5t159 62.5q98 0 161.5 -62.5t63.5 -156.5t-63.5 -155.5
t-161.5 -61.5q-97 0 -159.5 61.5t-62.5 155.5zM643 1692q0 -26 19 -45t45 -19q25 0 43 19t18 45q3 40 -29.5 56t-65 0t-30.5 -56z" />
    <glyph glyph-name="Aring.alt.smcp" horiz-adv-x="1128" 
d="M1047 602v-602h-316v225h-334v-225h-313v602q0 188 133 309q131 119 348 119q215 0 346 -119q136 -121 136 -309zM342 1313q0 94 62.5 157.5t158.5 63.5q97 0 160 -63t63 -158q0 -94 -62.5 -155.5t-160.5 -61.5q-96 0 -158.5 61.5t-62.5 155.5zM397 582v-101h334v101
q0 75 -46.5 122.5t-119.5 47.5q-74 0 -121 -47.5t-47 -122.5zM502 1313q0 -27 17.5 -45.5t43.5 -18.5t44 19t18 45q0 30 -19 47.5t-42.5 17.5t-42.5 -17.5t-19 -47.5z" />
    <glyph glyph-name="Aring.smcp" horiz-adv-x="1173" 
d="M365 1313q0 94 62.5 157.5t158.5 63.5q98 0 161.5 -63.5t63.5 -157.5t-63.5 -155.5t-161.5 -61.5q-96 0 -158.5 61.5t-62.5 155.5zM524 1313q0 -27 17.5 -45.5t46.5 -18.5q25 0 42 19t17 45q0 30 -19 47.5t-42.5 17.5t-42.5 -17.5t-19 -47.5zM1161 0h-332l-57 166h-371
l-57 -166h-332l391 1010h367zM690 403l-102 302l-107 -302h209z" />
    <glyph glyph-name="Aring.swsh" horiz-adv-x="1853" 
d="M1493 0l-92 250h-576l-92 -250h-352l428 1085h-55q-245 0 -354 -113.5t-111 -357.5l-258 72q-16 144 21.5 266t124.5 213t232 142t334 51h564l536 -1358q212 -496 674 -496q47 0 72 2l-43 -272q-27 -2 -90 -2q-110 0 -214.5 23.5t-213.5 79.5t-203.5 142t-181.5 219.5
t-150 303.5zM1112 1028l-192 -522h387zM885 1692q0 94 62.5 156.5t158.5 62.5q98 0 160.5 -62.5t62.5 -156.5t-62.5 -155.5t-160.5 -61.5q-96 0 -158.5 61.5t-62.5 155.5zM1044 1692q0 -27 17.5 -45.5t46.5 -18.5q25 0 42 19t17 45q5 39 -27.5 56t-65.5 0t-30 -56z" />
    <glyph glyph-name="Aringacute.alt" horiz-adv-x="1425" 
d="M1321 0h-330v344h-559v-344h-328v809q0 269 160.5 419t448.5 150t448 -151t160 -418v-809zM432 793v-172h559v172q0 139 -71.5 212.5t-206.5 73.5q-136 0 -208.5 -73.5t-72.5 -212.5zM731 2294h363l-263 -334h-262zM487 1692q0 94 63.5 156.5t160.5 62.5
q98 0 160.5 -62.5t62.5 -156.5t-62.5 -155.5t-160.5 -61.5q-97 0 -160.5 61.5t-63.5 155.5zM649 1692q0 -26 18 -45t44 -19t43.5 18.5t17.5 45.5q0 40 -31 56t-61.5 0t-30.5 -56z" />
    <glyph glyph-name="Aringacute.alt.smcp" horiz-adv-x="1128" 
d="M1047 602v-602h-316v225h-334v-225h-313v602q0 188 133 309q131 119 348 119q215 0 346 -119q136 -121 136 -309zM342 1313q0 94 62.5 157.5t158.5 63.5q97 0 160 -63t63 -158q0 -94 -62.5 -155.5t-160.5 -61.5q-96 0 -158.5 61.5t-62.5 155.5zM612 1915h363l-262 -334
h-262zM397 582v-101h334v101q0 75 -46.5 122.5t-119.5 47.5q-74 0 -121 -47.5t-47 -122.5zM502 1313q0 -27 17.5 -45.5t43.5 -18.5t44 19t18 45q0 30 -19 47.5t-42.5 17.5t-42.5 -17.5t-19 -47.5z" />
    <glyph glyph-name="Aringacute.smcp" horiz-adv-x="1173" 
d="M365 1313q0 94 62.5 157.5t158.5 63.5q98 0 161.5 -63.5t63.5 -157.5t-63.5 -155.5t-161.5 -61.5q-96 0 -158.5 61.5t-62.5 155.5zM524 1313q0 -27 17.5 -45.5t46.5 -18.5q25 0 42 19t17 45q0 30 -19 47.5t-42.5 17.5t-42.5 -17.5t-19 -47.5zM608 1915h363l-264 -334
h-261zM1161 0h-332l-57 166h-371l-57 -166h-332l391 1010h367zM690 403l-102 302l-107 -302h209z" />
    <glyph glyph-name="Aringacute.swsh" horiz-adv-x="1853" 
d="M1493 0l-92 250h-576l-92 -250h-352l428 1085h-55q-245 0 -354 -113.5t-111 -357.5l-258 72q-16 144 21.5 266t124.5 213t232 142t334 51h564l536 -1358q212 -496 674 -496q47 0 72 2l-43 -272q-27 -2 -90 -2q-110 0 -214.5 23.5t-213.5 79.5t-203.5 142t-181.5 219.5
t-150 303.5zM1112 1028l-192 -522h387zM1114 2294h363l-265 -334h-260zM870 1692q0 94 63 156.5t159 62.5q98 0 161.5 -62.5t63.5 -156.5t-63.5 -155.5t-161.5 -61.5q-97 0 -159.5 61.5t-62.5 155.5zM1030 1692q0 -26 19 -45t45 -19q25 0 42 19t17 45q4 40 -28 56t-64.5 0
t-30.5 -56z" />
    <glyph glyph-name="Atilde.alt" horiz-adv-x="1425" 
d="M1321 0h-330v344h-559v-344h-328v809q0 269 160.5 419t448.5 150t448 -151t160 -418v-809zM432 793v-172h559v172q0 139 -71.5 212.5t-206.5 73.5q-136 0 -208.5 -73.5t-72.5 -212.5zM471 1493l-115 104q112 207 258 207q44 0 138 -49q96 -47 122 -47q57 0 113 86
l117 -104q-112 -207 -260 -207q-47 0 -133 47q-85 49 -127 49q-48 0 -113 -86z" />
    <glyph glyph-name="Atilde.alt.smcp" horiz-adv-x="1128" 
d="M1047 602v-602h-316v225h-334v-225h-313v602q0 188 133 309q131 119 348 119q215 0 346 -119q136 -121 136 -309zM305 1114l-115 105q111 206 259 206q43 0 137 -49q96 -47 123 -47q56 0 112 86l117 -102q-112 -207 -260 -207q-47 0 -133 47t-127 47q-48 0 -113 -86z
M397 582v-101h334v101q0 75 -46.5 122.5t-119.5 47.5q-74 0 -121 -47.5t-47 -122.5z" />
    <glyph glyph-name="Atilde.smcp" horiz-adv-x="1173" 
d="M328 1114l-115 105q108 206 256 206q43 0 137 -49q96 -47 123 -47q56 0 115 86l114 -102q-112 -207 -260 -207q-47 0 -133 47t-127 47q-48 0 -110 -86zM1161 0h-332l-57 166h-371l-57 -166h-332l391 1010h367zM690 403l-102 302l-107 -302h209z" />
    <glyph glyph-name="Atilde.swsh" horiz-adv-x="1853" 
d="M1493 0l-92 250h-576l-92 -250h-352l428 1085h-55q-245 0 -354 -113.5t-111 -357.5l-258 72q-16 144 21.5 266t124.5 213t232 142t334 51h564l536 -1358q212 -496 674 -496q47 0 72 2l-43 -272q-27 -2 -90 -2q-110 0 -214.5 23.5t-213.5 79.5t-203.5 142t-181.5 219.5
t-150 303.5zM1112 1028l-192 -522h387zM844 1493l-117 104q112 207 258 207q43 0 137 -49q96 -47 123 -47q56 0 115 86l115 -104q-112 -207 -261 -207q-47 0 -133 47q-85 49 -127 49q-48 0 -110 -86z" />
    <glyph glyph-name="B.smcp" horiz-adv-x="1030" 
d="M670 0h-582v1010h533q132 0 221 -74q92 -71 92 -195q0 -144 -121 -221q83 -32 126.5 -95t43.5 -144q0 -127 -88 -204t-225 -77zM596 403h-207v-161h207q38 0 62 22t24 55q0 37 -24 60.5t-62 23.5zM553 768h-164v-143h170q34 0 53 20t19 53q0 31 -21 50.5t-57 19.5z" />
    <glyph glyph-name="B.swsh" horiz-adv-x="1961" 
d="M1491 0h-746v1083q-243 0 -352.5 -113.5t-111.5 -355.5l-256 70q-18 144 19.5 267t126.5 213.5t236 142t338 51.5h680q110 0 202.5 -40.5t150 -122.5t57.5 -191q0 -204 -180 -308q120 -41 185 -126t65 -199q0 -170 -119 -271q-118 -100 -295 -100zM1405 553h-330v-279
h330q63 0 102 39t39 99q0 64 -38 102.5t-103 38.5zM1352 1083h-277v-278h287q61 0 96 38.5t35 100.5t-39 100.5t-102 38.5z" />
    <glyph glyph-name="C.smcp" horiz-adv-x="1034" 
d="M49 508q0 233 166 377q171 145 436 145q191 0 324 -59l-25 -269q-106 50 -278 50q-139 0 -225.5 -67.5t-86.5 -176.5q0 -110 86.5 -180t223.5 -70q155 0 280 70l47 -258q-159 -90 -368 -90q-255 0 -420 145q-160 148 -160 383z" />
    <glyph glyph-name="Cacute.smcp" horiz-adv-x="1034" 
d="M633 1430h360l-262 -334h-262zM49 508q0 233 166 377q171 145 436 145q191 0 324 -59l-25 -269q-106 50 -278 50q-139 0 -225.5 -67.5t-86.5 -176.5q0 -110 86.5 -180t223.5 -70q155 0 280 70l47 -258q-159 -90 -368 -90q-255 0 -420 145q-160 148 -160 383z" />
    <glyph glyph-name="Ccaron.smcp" horiz-adv-x="1034" 
d="M246 1473h264l121 -168l121 168h264l-289 -369h-195zM49 508q0 233 166 377q171 145 436 145q191 0 324 -59l-25 -269q-106 50 -278 50q-139 0 -225.5 -67.5t-86.5 -176.5q0 -110 86.5 -180t223.5 -70q155 0 280 70l47 -258q-159 -90 -368 -90q-255 0 -420 145
q-160 148 -160 383z" />
    <glyph glyph-name="Ccedilla.smcp" horiz-adv-x="1034" 
d="M49 508q0 233 166 377q171 145 436 145q191 0 324 -59l-25 -269q-106 50 -278 50q-139 0 -225.5 -67.5t-86.5 -176.5q0 -110 86.5 -180t223.5 -70q155 0 280 70l47 -258q-143 -79 -323 -88l-19 -64q106 -13 161.5 -64.5t55.5 -125.5q0 -92 -89 -148.5t-232 -56.5
q-100 0 -164 31v153q61 -18 131 -18q81 -6 110 37q22 33 -5 64q-32 38 -107 32h-74l68 168q-210 34 -336 172q-125 137 -125 346z" />
    <glyph glyph-name="Ccircumflex.smcp" horiz-adv-x="1034" 
d="M723 1462l287 -368h-265l-120 168l-121 -168h-264l286 368h197zM49 508q0 233 166 377q171 145 436 145q191 0 324 -59l-25 -269q-106 50 -278 50q-139 0 -225.5 -67.5t-86.5 -176.5q0 -110 86.5 -180t223.5 -70q155 0 280 70l47 -258q-159 -90 -368 -90q-255 0 -420 145
q-160 148 -160 383z" />
    <glyph glyph-name="Cdotaccent.smcp" horiz-adv-x="1034" 
d="M637 1090q-75 0 -123.5 48.5t-48.5 123.5t48.5 123.5t123.5 48.5q77 0 125.5 -48t48.5 -124t-48.5 -124t-125.5 -48zM49 508q0 233 166 377q171 145 436 145q191 0 324 -59l-25 -269q-106 50 -278 50q-139 0 -225.5 -67.5t-86.5 -176.5q0 -110 86.5 -180t223.5 -70
q155 0 280 70l47 -258q-159 -90 -368 -90q-255 0 -420 145q-160 148 -160 383z" />
    <glyph glyph-name="D.smcp" horiz-adv-x="1144" 
d="M88 0v1010h473q250 0 391.5 -133.5t141.5 -368.5q0 -239 -141 -373.5t-392 -134.5h-473zM403 754v-498h142q111 0 174 67t63 185q0 115 -63.5 180.5t-173.5 65.5h-142z" />
    <glyph glyph-name="D.swsh" horiz-adv-x="2097" 
d="M1339 0h-594v1083q-243 0 -352.5 -113.5t-111.5 -355.5l-256 70q-15 113 5.5 214.5t77 185.5t144 145t214 95t279.5 34h594q328 0 512.5 -178t184.5 -498q0 -319 -189 -502q-186 -180 -508 -180zM1313 1081h-240v-805h240q193 0 290 103.5t97 302.5q0 399 -387 399z" />
    <glyph glyph-name="Dcaron.smcp" horiz-adv-x="1144" 
d="M143 1473h265l120 -168l121 168h264l-286 -369h-197zM88 0v1010h473q250 0 391.5 -133.5t141.5 -368.5q0 -239 -141 -373.5t-392 -134.5h-473zM403 754v-498h142q111 0 174 67t63 185q0 115 -63.5 180.5t-173.5 65.5h-142z" />
    <glyph glyph-name="Dcaron.swsh" horiz-adv-x="2097" 
d="M1339 0h-594v1083q-243 0 -352.5 -113.5t-111.5 -355.5l-256 70q-15 113 5.5 214.5t77 185.5t144 145t214 95t279.5 34h594q328 0 512.5 -178t184.5 -498q0 -319 -189 -502q-186 -180 -508 -180zM1313 1081h-240v-805h240q193 0 290 103.5t97 302.5q0 399 -387 399z
M934 1851h262l123 -170l121 170h264l-289 -370h-194z" />
    <glyph glyph-name="Dcroat.smcp" horiz-adv-x="1144" 
d="M88 592v418h473q250 0 391.5 -133.5t141.5 -368.5q0 -239 -141 -373.5t-392 -134.5h-473v438h-113v154h113zM403 438v-182h142q111 0 174 67t63 185q0 115 -63.5 180.5t-173.5 65.5h-142v-162h189v-154h-189z" />
    <glyph glyph-name="Dcroat.swsh" horiz-adv-x="2097" 
d="M1339 0h-594v580h-165v233h165v270q-243 0 -352.5 -113.5t-111.5 -355.5l-256 70q-15 113 5.5 214.5t77 185.5t144 145t214 95t279.5 34h594q328 0 512.5 -178t184.5 -498q0 -319 -189 -502q-186 -180 -508 -180zM1313 1081h-240v-268h313v-233h-313v-304h240
q193 0 290 103.5t97 302.5q0 399 -387 399z" />
    <glyph glyph-name="E.smcp" horiz-adv-x="946" 
d="M403 256h490v-256h-805v1010h801v-256h-486v-119h439v-246h-439v-133z" />
    <glyph glyph-name="E.swsh" horiz-adv-x="1837" 
d="M1073 276h707v-276h-1035v1083q-243 0 -352.5 -113.5t-111.5 -355.5l-256 70q-18 144 19.5 267t126.5 213.5t236 142t338 51.5h1024v-277h-696v-252h619v-276h-619v-277z" />
    <glyph glyph-name="Eacute.smcp" horiz-adv-x="946" 
d="M510 1430h360l-262 -334h-262zM403 256h490v-256h-805v1010h801v-256h-486v-119h439v-246h-439v-133z" />
    <glyph glyph-name="Ebreve.smcp" horiz-adv-x="946" 
d="M176 1415h209q2 -57 34 -93t81 -36q50 0 81 35.5t33 93.5h209q-6 -147 -94.5 -236t-228.5 -89t-229 89t-95 236zM403 256h490v-256h-805v1010h801v-256h-486v-119h439v-246h-439v-133z" />
    <glyph glyph-name="Ecaron.smcp" horiz-adv-x="946" 
d="M98 1473h264l121 -168l121 168h264l-286 -369h-197zM403 256h490v-256h-805v1010h801v-256h-486v-119h439v-246h-439v-133z" />
    <glyph glyph-name="Ecircumflex.smcp" horiz-adv-x="946" 
d="M598 1462l287 -368h-264l-121 168l-121 -168h-264l286 368h197zM403 256h490v-256h-805v1010h801v-256h-486v-119h439v-246h-439v-133z" />
    <glyph glyph-name="Edieresis.smcp" horiz-adv-x="946" 
d="M682 1110q-66 0 -108 42t-42 108q0 67 42 110t108 43q69 0 111.5 -42.5t42.5 -110.5q0 -66 -42.5 -108t-111.5 -42zM305 1110q-67 0 -109 42t-42 108q0 68 42 110.5t109 42.5q68 0 111 -43t43 -110q0 -66 -43 -108t-111 -42zM403 256h490v-256h-805v1010h801v-256h-486
v-119h439v-246h-439v-133z" />
    <glyph glyph-name="Edotaccent.smcp" horiz-adv-x="946" 
d="M496 1090q-75 0 -123.5 48.5t-48.5 123.5t48.5 123.5t123.5 48.5t124.5 -48.5t49.5 -123.5t-49.5 -123.5t-124.5 -48.5zM403 256h490v-256h-805v1010h801v-256h-486v-119h439v-246h-439v-133z" />
    <glyph glyph-name="Edotbelow.smcp" horiz-adv-x="946" 
d="M309 -285q0 72 51 123t123 51t124 -51t52 -123q0 -73 -51.5 -121.5t-124.5 -48.5q-72 0 -123 50.5t-51 119.5zM403 256h490v-256h-805v1010h801v-256h-486v-119h439v-246h-439v-133z" />
    <glyph glyph-name="Egrave.smcp" horiz-adv-x="946" 
d="M659 1096h-262l-262 334h363zM403 256h490v-256h-805v1010h801v-256h-486v-119h439v-246h-439v-133z" />
    <glyph glyph-name="Emacron.smcp" horiz-adv-x="946" 
d="M195 1327h591v-205h-591v205zM403 256h490v-256h-805v1010h801v-256h-486v-119h439v-246h-439v-133z" />
    <glyph glyph-name="Eng.smcp" horiz-adv-x="1187" 
d="M784 74l-381 442v-516h-315v1010h254l442 -516v516h316v-1084q0 -166 -96 -256t-232 -90q-122 0 -188 29l24 264q38 -7 66 -7t55 8.5t41 34t14 66.5v99z" />
    <glyph glyph-name="Eogonek.smcp" horiz-adv-x="946" 
d="M403 256h490v-256q-197 -114 -197 -195q0 -35 26 -55t69 -20q57 0 108 26l64 -176q-86 -57 -220 -57q-120 0 -190 58t-70 153q0 152 191 266h-586v1010h801v-256h-486v-119h439v-246h-439v-133z" />
    <glyph glyph-name="Eth.smcp" horiz-adv-x="1144" 
d="M88 592v418h473q250 0 391.5 -133.5t141.5 -368.5q0 -239 -141 -373.5t-392 -134.5h-473v438h-113v154h113zM403 438v-182h142q111 0 174 67t63 185q0 115 -63.5 180.5t-173.5 65.5h-142v-162h189v-154h-189z" />
    <glyph glyph-name="Etilde.smcp" horiz-adv-x="946" 
d="M244 1114l-117 105q111 206 258 206q43 0 137 -49q96 -47 123 -47q56 0 115 86l114 -102q-112 -207 -260 -207q-47 0 -133 47t-127 47q-48 0 -110 -86zM403 256h490v-256h-805v1010h801v-256h-486v-119h439v-246h-439v-133z" />
    <glyph glyph-name="Euro.onum" horiz-adv-x="1226" 
d="M477 483h326l-15 -114h-256q94 -111 281 -111q164 0 297 74l49 -258q-166 -94 -389 -94q-219 0 -376.5 105t-211.5 284h-135l14 114h101q-2 23 -2 54q0 26 2 34h-115l16 111h115q50 185 215 295t404 110q203 0 338 -63l-25 -268q-112 53 -295 53q-99 0 -177.5 -33.5
t-121.5 -93.5h320l-19 -111h-344q-2 -16 -2 -34q0 -27 6 -54z" />
    <glyph glyph-name="Euro.onum.tnum" 
d="M549 483h325l-16 -114h-256q94 -111 283 -111q161 0 297 74l49 -258q-166 -94 -389 -94q-220 0 -377 104.5t-211 284.5h-135l14 114h100q-2 23 -2 54v34h-112l14 111h117q50 185 215 295t401 110q205 0 340 -63l-24 -268q-112 53 -295 53q-99 0 -177.5 -33.5
t-121.5 -93.5h317l-16 -111h-344q-2 -16 -2 -34q0 -27 6 -54z" />
    <glyph glyph-name="Euro.tnum" 
d="M207 438h-191v170h158q-4 46 -4 99h-154v172h179q41 160 146.5 273t249.5 167.5t316 54.5q194 0 371 -71l-33 -283q-139 53 -291 53q-142 0 -247 -49t-158 -145h452l-26 -172h-469q-4 -43 4 -99h453l-23 -170h-373q54 -84 149 -127t216 -43q185 0 364 92l37 -276
q-108 -55 -214.5 -79.5t-237.5 -24.5q-244 0 -424 122q-178 121 -250 336z" />
    <glyph glyph-name="F.smcp" horiz-adv-x="897" 
d="M766 383h-363v-383h-315v1010h776v-256h-461v-125h363v-246z" />
    <glyph glyph-name="F.swsh" horiz-adv-x="1767" 
d="M1591 545h-518v-545h-328v1083q-243 0 -352.5 -113.5t-111.5 -355.5l-256 70q-18 144 19.5 267t126.5 213.5t236 142t338 51.5h988v-277h-660v-260h518v-276z" />
    <glyph glyph-name="G.alt" horiz-adv-x="1435" 
d="M1042 305v322h328v-508q-119 -64 -261 -100.5t-271 -36.5q-231 0 -408 88q-179 91 -275 249.5t-96 362.5q0 136 43 251t117.5 196t176 138t218 84t242.5 27q241 0 457 -94l-23 -283q-197 84 -405 84q-101 0 -187 -23t-155 -69.5t-108.5 -126t-39.5 -184.5
q0 -189 119 -299q120 -111 307 -111q139 0 221 33z" />
    <glyph glyph-name="G.alt.smcp" horiz-adv-x="1138" 
d="M797 268v219h284v-391q-87 -55 -201 -85.5t-235 -30.5q-262 0 -430 145q-166 147 -166 383q0 234 168 377q171 145 440 145q216 0 369 -72l-22 -258q-151 62 -310 62q-148 0 -241 -71.5t-93 -184.5q0 -115 79 -185.5t208 -70.5q101 0 150 18z" />
    <glyph glyph-name="G.smcp" horiz-adv-x="1142" 
d="M797 268v109h-207v225h491v-506q-87 -55 -201 -85.5t-235 -30.5q-262 0 -430 145q-166 147 -166 383q0 234 168 377q171 145 440 145q216 0 369 -72l-22 -258q-151 62 -310 62q-148 0 -241 -71.5t-93 -184.5q0 -115 79 -185.5t208 -70.5q101 0 150 18z" />
    <glyph glyph-name="Gbreve.alt" horiz-adv-x="1435" 
d="M1042 305v322h328v-508q-119 -64 -261 -100.5t-271 -36.5q-231 0 -408 88q-179 91 -275 249.5t-96 362.5q0 136 43 251t117.5 196t176 138t218 84t242.5 27q241 0 457 -94l-23 -283q-197 84 -405 84q-101 0 -187 -23t-155 -69.5t-108.5 -126t-39.5 -184.5
q0 -189 119 -299q120 -111 307 -111q139 0 221 33zM485 1792h209q2 -56 34 -91.5t81 -35.5q51 0 82 35t33 92h209q-6 -147 -95 -235.5t-229 -88.5t-229 89t-95 235z" />
    <glyph glyph-name="Gbreve.alt.smcp" horiz-adv-x="1138" 
d="M338 1415h209q2 -57 34 -93t81 -36q50 0 80 35.5t32 93.5h211q-6 -147 -94.5 -236t-228.5 -89t-229 89t-95 236zM797 268v219h284v-391q-87 -55 -201 -85.5t-235 -30.5q-262 0 -430 145q-166 147 -166 383q0 234 168 377q171 145 440 145q216 0 369 -72l-22 -258
q-151 62 -310 62q-148 0 -241 -71.5t-93 -184.5q0 -115 79 -185.5t208 -70.5q101 0 150 18z" />
    <glyph glyph-name="Gbreve.smcp" horiz-adv-x="1142" 
d="M313 1415h209q2 -57 34 -93t81 -36q51 0 82 36t33 93h209q-6 -147 -95 -236t-229 -89t-229 89t-95 236zM797 268v109h-207v225h491v-506q-87 -55 -201 -85.5t-235 -30.5q-262 0 -430 145q-166 147 -166 383q0 234 168 377q171 145 440 145q216 0 369 -72l-22 -258
q-151 62 -310 62q-148 0 -241 -71.5t-93 -184.5q0 -115 79 -185.5t208 -70.5q101 0 150 18z" />
    <glyph glyph-name="Gcaron.alt" horiz-adv-x="1435" 
d="M1042 305v322h328v-508q-119 -64 -261 -100.5t-271 -36.5q-231 0 -408 88q-179 91 -275 249.5t-96 362.5q0 136 43 251t117.5 196t176 138t218 84t242.5 27q241 0 457 -94l-23 -283q-197 84 -405 84q-101 0 -187 -23t-155 -69.5t-108.5 -126t-39.5 -184.5
q0 -189 119 -299q120 -111 307 -111q139 0 221 33zM440 1851h265l120 -170l121 170h264l-286 -370h-197z" />
    <glyph glyph-name="Gcaron.alt.smcp" horiz-adv-x="1138" 
d="M268 1473h264l121 -168l121 168h264l-286 -369h-197zM797 268v219h284v-391q-87 -55 -201 -85.5t-235 -30.5q-262 0 -430 145q-166 147 -166 383q0 234 168 377q171 145 440 145q216 0 369 -72l-22 -258q-151 62 -310 62q-148 0 -241 -71.5t-93 -184.5q0 -115 79 -185.5
t208 -70.5q101 0 150 18z" />
    <glyph glyph-name="Gcaron.smcp" horiz-adv-x="1142" 
d="M260 1473h264l121 -168l123 168h262l-287 -369h-194zM797 268v109h-207v225h491v-506q-87 -55 -201 -85.5t-235 -30.5q-262 0 -430 145q-166 147 -166 383q0 234 168 377q171 145 440 145q216 0 369 -72l-22 -258q-151 62 -310 62q-148 0 -241 -71.5t-93 -184.5
q0 -115 79 -185.5t208 -70.5q101 0 150 18z" />
    <glyph glyph-name="Gcircumflex.alt" horiz-adv-x="1435" 
d="M1042 305v322h328v-508q-119 -64 -261 -100.5t-271 -36.5q-231 0 -408 88q-179 91 -275 249.5t-96 362.5q0 136 43 251t117.5 196t176 138t218 84t242.5 27q241 0 457 -94l-23 -283q-197 84 -405 84q-101 0 -187 -23t-155 -69.5t-108.5 -126t-39.5 -184.5
q0 -189 119 -299q120 -111 307 -111q139 0 221 33zM907 1841l287 -371h-264l-121 170l-121 -170h-264l287 371h196z" />
    <glyph glyph-name="Gcircumflex.alt.smcp" horiz-adv-x="1138" 
d="M752 1462l286 -368h-264l-121 168l-121 -168h-264l287 368h197zM797 268v219h284v-391q-87 -55 -201 -85.5t-235 -30.5q-262 0 -430 145q-166 147 -166 383q0 234 168 377q171 145 440 145q216 0 369 -72l-22 -258q-151 62 -310 62q-148 0 -241 -71.5t-93 -184.5
q0 -115 79 -185.5t208 -70.5q101 0 150 18z" />
    <glyph glyph-name="Gcircumflex.smcp" horiz-adv-x="1142" 
d="M743 1462l287 -368h-262l-123 168l-121 -168h-264l289 368h194zM797 268v109h-207v225h491v-506q-87 -55 -201 -85.5t-235 -30.5q-262 0 -430 145q-166 147 -166 383q0 234 168 377q171 145 440 145q216 0 369 -72l-22 -258q-151 62 -310 62q-148 0 -241 -71.5
t-93 -184.5q0 -115 79 -185.5t208 -70.5q101 0 150 18z" />
    <glyph glyph-name="Gcommaaccent.alt" horiz-adv-x="1435" 
d="M1042 305v322h328v-508q-119 -64 -261 -100.5t-271 -36.5q-231 0 -408 88q-179 91 -275 249.5t-96 362.5q0 136 43 251t117.5 196t176 138t218 84t242.5 27q241 0 457 -94l-23 -283q-197 84 -405 84q-101 0 -187 -23t-155 -69.5t-108.5 -126t-39.5 -184.5
q0 -189 119 -299q120 -111 307 -111q139 0 221 33zM823 -539h-225v443h297z" />
    <glyph glyph-name="Gcommaaccent.alt.smcp" horiz-adv-x="1138" 
d="M741 -539h-227v443h297zM797 268v219h284v-391q-87 -55 -201 -85.5t-235 -30.5q-262 0 -430 145q-166 147 -166 383q0 234 168 377q171 145 440 145q216 0 369 -72l-22 -258q-151 62 -310 62q-148 0 -241 -71.5t-93 -184.5q0 -115 79 -185.5t208 -70.5q101 0 150 18z" />
    <glyph glyph-name="Gcommaaccent.smcp" horiz-adv-x="1142" 
d="M731 -539h-225v443h297zM797 268v109h-207v225h491v-506q-87 -55 -201 -85.5t-235 -30.5q-262 0 -430 145q-166 147 -166 383q0 234 168 377q171 145 440 145q216 0 369 -72l-22 -258q-151 62 -310 62q-148 0 -241 -71.5t-93 -184.5q0 -115 79 -185.5t208 -70.5
q101 0 150 18z" />
    <glyph glyph-name="Gdotaccent.alt" horiz-adv-x="1435" 
d="M1042 305v322h328v-508q-119 -64 -261 -100.5t-271 -36.5q-231 0 -408 88q-179 91 -275 249.5t-96 362.5q0 136 43 251t117.5 196t176 138t218 84t242.5 27q241 0 457 -94l-23 -283q-197 84 -405 84q-101 0 -187 -23t-155 -69.5t-108.5 -126t-39.5 -184.5
q0 -189 119 -299q120 -111 307 -111q139 0 221 33zM821 1466q-75 0 -123.5 48.5t-48.5 123.5q0 78 48.5 126t123.5 48q78 0 126 -48t48 -126q0 -76 -48.5 -124t-125.5 -48z" />
    <glyph glyph-name="Gdotaccent.alt.smcp" horiz-adv-x="1138" 
d="M668 1090q-75 0 -123.5 48.5t-48.5 123.5t48.5 123.5t123.5 48.5t124.5 -48.5t49.5 -123.5t-49.5 -123.5t-124.5 -48.5zM797 268v219h284v-391q-87 -55 -201 -85.5t-235 -30.5q-262 0 -430 145q-166 147 -166 383q0 234 168 377q171 145 440 145q216 0 369 -72l-22 -258
q-151 62 -310 62q-148 0 -241 -71.5t-93 -184.5q0 -115 79 -185.5t208 -70.5q101 0 150 18z" />
    <glyph glyph-name="Gdotaccent.smcp" horiz-adv-x="1142" 
d="M651 1090q-75 0 -123.5 48.5t-48.5 123.5t48.5 123.5t123.5 48.5q77 0 125.5 -48t48.5 -124t-48.5 -124t-125.5 -48zM797 268v109h-207v225h491v-506q-87 -55 -201 -85.5t-235 -30.5q-262 0 -430 145q-166 147 -166 383q0 234 168 377q171 145 440 145q216 0 369 -72
l-22 -258q-151 62 -310 62q-148 0 -241 -71.5t-93 -184.5q0 -115 79 -185.5t208 -70.5q101 0 150 18z" />
    <glyph glyph-name="H.smcp" horiz-adv-x="1173" 
d="M770 1010h315v-1010h-315v385h-367v-385h-315v1010h315v-369h367v369z" />
    <glyph glyph-name="Hbar.smcp" horiz-adv-x="1310" 
d="M838 1010h315v-111h127v-151h-127v-748h-315v385h-367v-385h-313v748h-125v151h125v111h313v-111h367v111zM471 748v-107h367v107h-367z" />
    <glyph glyph-name="Hcircumflex.smcp" horiz-adv-x="1173" 
d="M684 1462l287 -368h-264l-121 168l-121 -168h-264l286 368h197zM770 1010h315v-1010h-315v385h-367v-385h-315v1010h315v-369h367v369z" />
    <glyph glyph-name="I.alt" horiz-adv-x="1042" 
d="M686 1079v-800h299v-279h-928v279h299v800h-299v279h928v-279h-299z" />
    <glyph glyph-name="I.alt.smcp" horiz-adv-x="837" 
d="M51 1010h735v-256h-208v-498h208v-256h-735v256h211v498h-211v256z" />
    <glyph glyph-name="I.smcp" horiz-adv-x="493" 
d="M88 1010h315v-1010h-315v1010z" />
    <glyph glyph-name="IJ.smcp" horiz-adv-x="1425" 
d="M88 1010h315v-1010h-315v1010zM573 55l35 267q56 -29 133 -47.5t146 -18.5q77 0 112 37t35 108v353h-338v256h645v-691q0 -71 -24.5 -129t-65 -96t-95.5 -64.5t-113.5 -38t-120.5 -11.5q-96 0 -174.5 16t-174.5 59z" />
    <glyph glyph-name="IJacute" horiz-adv-x="1748" 
d="M113 1358h329v-1358h-329v1358zM309 1806h363l-262 -333h-263zM657 72l35 276q46 -18 94 -33.5t107 -28.5t111 -18.5t103 1t87.5 25.5t59 59.5t22.5 99.5v626h-463v279h793v-932q0 -91 -30 -166.5t-80.5 -126.5t-118.5 -86t-142.5 -51t-153.5 -16q-126 0 -219 19t-205 73
zM1280 1806h362l-264 -333h-260z" />
    <glyph glyph-name="IJacute.smcp" horiz-adv-x="1495" 
d="M274 1430h363l-262 -334h-262zM88 1010h315v-1010h-315v1010zM573 55l35 267q56 -29 133 -47.5t146 -18.5q77 0 112 37t35 108v353h-338v256h645v-691q0 -71 -24.5 -129t-65 -96t-95.5 -64.5t-113.5 -38t-120.5 -11.5q-96 0 -174.5 16t-174.5 59zM1053 1430h360
l-262 -334h-260z" />
    <glyph glyph-name="Iacute.alt" horiz-adv-x="1042" 
d="M686 1079v-800h299v-279h-928v279h299v800h-299v279h928v-279h-299zM535 1806h362l-262 -333h-262z" />
    <glyph glyph-name="Iacute.alt.smcp" horiz-adv-x="866" 
d="M453 1430h360l-262 -334h-260zM51 1010h735v-256h-208v-498h208v-256h-735v256h211v498h-211v256z" />
    <glyph glyph-name="Iacute.smcp" horiz-adv-x="493" 
d="M274 1430h363l-262 -334h-262zM88 1010h315v-1010h-315v1010z" />
    <glyph glyph-name="Ibreve.alt" horiz-adv-x="1042" 
d="M686 1079v-800h299v-279h-928v279h299v800h-299v279h928v-279h-299zM172 1792h211q0 -56 32 -91.5t81 -35.5q51 0 81.5 35t32.5 92h209q-6 -148 -94 -236t-229 -88q-140 0 -229 89t-95 235z" />
    <glyph glyph-name="Ibreve.alt.smcp" horiz-adv-x="837" 
d="M94 1415h209q2 -57 34 -93t81 -36q50 0 81 35.5t33 93.5h209q-6 -147 -94.5 -236t-228.5 -89t-229 89t-95 236zM51 1010h735v-256h-208v-498h208v-256h-735v256h211v498h-211v256z" />
    <glyph glyph-name="Ibreve.smcp" horiz-adv-x="493" 
d="M-76 1415h211q2 -57 34 -93t81 -36t79.5 36t32.5 93h211q-8 -148 -96 -236.5t-227 -88.5q-140 0 -229.5 89t-96.5 236zM88 1010h315v-1010h-315v1010z" />
    <glyph glyph-name="Icircumflex.alt" horiz-adv-x="1042" 
d="M686 1079v-800h299v-279h-928v279h299v800h-299v279h928v-279h-299zM608 1841l287 -371h-262l-121 170l-123 -170h-262l287 371h194z" />
    <glyph glyph-name="Icircumflex.alt.smcp" horiz-adv-x="874" 
d="M535 1462l286 -368h-264l-121 168l-121 -168h-264l289 368h195zM61 1010h734v-256h-209v-498h209v-256h-734v256h209v498h-209v256z" />
    <glyph glyph-name="Icircumflex.smcp" horiz-adv-x="493" 
d="M346 1462l287 -368h-264l-121 168l-121 -168h-264l287 368h196zM88 1010h315v-1010h-315v1010z" />
    <glyph glyph-name="Idieresis.alt" horiz-adv-x="1042" 
d="M686 1079v-800h299v-279h-928v279h299v800h-299v279h928v-279h-299zM715 1489q-67 0 -109.5 41.5t-42.5 107.5q0 68 42.5 111t109.5 43t110 -43t43 -111q0 -66 -42.5 -107.5t-110.5 -41.5zM338 1489q-67 0 -109.5 41.5t-42.5 107.5q0 68 42.5 111t109.5 43t109 -43
t42 -111q0 -66 -42 -107.5t-109 -41.5z" />
    <glyph glyph-name="Idieresis.alt.smcp" horiz-adv-x="837" 
d="M612 1110q-67 0 -109 42t-42 108q0 68 42 110.5t109 42.5q68 0 111 -43t43 -110q0 -66 -43 -108t-111 -42zM233 1110q-66 0 -107.5 42t-41.5 108q0 68 41.5 110.5t107.5 42.5q68 0 111 -43t43 -110q0 -66 -43 -108t-111 -42zM51 1010h735v-256h-208v-498h208v-256h-735
v256h211v498h-211v256z" />
    <glyph glyph-name="Idieresis.smcp" horiz-adv-x="493" 
d="M436 1110q-67 0 -109 42t-42 108q0 68 42 110.5t109 42.5q68 0 111 -43t43 -110q0 -66 -43 -108t-111 -42zM57 1110q-66 0 -107.5 42t-41.5 108q0 68 41.5 110.5t107.5 42.5q69 0 111.5 -42.5t42.5 -110.5q0 -66 -42.5 -108t-111.5 -42zM88 1010h315v-1010h-315v1010z
" />
    <glyph glyph-name="Idotaccent.alt" horiz-adv-x="1042" 
d="M686 1079v-800h299v-279h-928v279h299v800h-299v279h928v-279h-299zM518 1466q-75 0 -123.5 48.5t-48.5 123.5q0 78 48 126t124 48q78 0 126 -48t48 -126q0 -76 -48 -124t-126 -48z" />
    <glyph glyph-name="Idotaccent.alt.smcp" horiz-adv-x="837" 
d="M426 1090q-75 0 -123.5 48.5t-48.5 123.5t48.5 123.5t123.5 48.5q78 0 126 -48t48 -124t-48 -124t-126 -48zM51 1010h735v-256h-208v-498h208v-256h-735v256h211v498h-211v256z" />
    <glyph glyph-name="Idotaccent.smcp" horiz-adv-x="493" 
d="M250 1090q-77 0 -124.5 48t-47.5 124t47.5 124t124.5 48q75 0 124.5 -48.5t49.5 -123.5t-49.5 -123.5t-124.5 -48.5zM88 1010h315v-1010h-315v1010z" />
    <glyph glyph-name="Idotbelow.alt" horiz-adv-x="1042" 
d="M686 1079v-800h299v-279h-928v279h299v800h-299v279h928v-279h-299zM330 -285q0 72 50 123t122 51q73 0 124.5 -51t51.5 -123q0 -73 -51.5 -121.5t-124.5 -48.5q-72 0 -122 50.5t-50 119.5z" />
    <glyph glyph-name="Idotbelow.alt.smcp" horiz-adv-x="837" 
d="M250 -285q0 72 51 123t123 51t123 -51t51 -123t-52 -121t-122 -49q-73 0 -123.5 50t-50.5 120zM51 1010h735v-256h-208v-498h208v-256h-735v256h211v498h-211v256z" />
    <glyph glyph-name="Idotbelow.smcp" horiz-adv-x="493" 
d="M72 -285q0 72 51 123t123 51t124 -51t52 -123t-52.5 -121t-123.5 -49q-73 0 -123.5 50t-50.5 120zM88 1010h315v-1010h-315v1010z" />
    <glyph glyph-name="Igrave.alt" horiz-adv-x="1042" 
d="M686 1079v-800h299v-279h-928v279h299v800h-299v279h928v-279h-299zM664 1473h-261l-264 333h363z" />
    <glyph glyph-name="Igrave.alt.smcp" horiz-adv-x="854" 
d="M575 1096h-260l-264 334h363zM70 1010h733v-256h-209v-498h209v-256h-733v256h209v498h-209v256z" />
    <glyph glyph-name="Igrave.smcp" horiz-adv-x="493" 
d="M377 1096h-260l-264 334h362zM88 1010h315v-1010h-315v1010z" />
    <glyph glyph-name="Imacron.alt" horiz-adv-x="1042" 
d="M686 1079v-800h299v-279h-928v279h299v800h-299v279h928v-279h-299zM209 1706h590v-205h-590v205z" />
    <glyph glyph-name="Imacron.alt.smcp" horiz-adv-x="837" 
d="M129 1327h592v-205h-592v205zM51 1010h735v-256h-208v-498h208v-256h-735v256h211v498h-211v256z" />
    <glyph glyph-name="Imacron.smcp" horiz-adv-x="493" 
d="M-43 1327h590v-205h-590v205zM88 1010h315v-1010h-315v1010z" />
    <glyph glyph-name="Iogonek.alt" horiz-adv-x="1042" 
d="M686 1079v-800h299v-279h-440q-197 -114 -197 -195q0 -35 25.5 -55t68.5 -20q58 0 109 26l63 -176q-86 -57 -219 -57q-120 0 -190 58t-70 153q0 152 191 266h-269v279h299v800h-299v279h928v-279h-299z" />
    <glyph glyph-name="Iogonek.alt.smcp" horiz-adv-x="837" 
d="M51 1010h735v-256h-208v-498h208v-256h-260q-196 -114 -196 -195q0 -35 25.5 -55t68.5 -20q57 0 108 26l64 -176q-86 -57 -219 -57q-120 0 -190 58t-70 153q0 152 188 266h-254v256h211v498h-211v256z" />
    <glyph glyph-name="Iogonek.smcp" horiz-adv-x="493" 
d="M88 1010h315v-1010h-47q-196 -114 -196 -195q0 -35 25.5 -55t68.5 -20q57 0 108 26l64 -176q-86 -57 -219 -57q-120 0 -190 58t-70 153q0 152 188 266h-47v1010z" />
    <glyph glyph-name="Itilde.alt" horiz-adv-x="1042" 
d="M686 1079v-800h299v-279h-928v279h299v800h-299v279h928v-279h-299zM258 1493l-115 104q112 207 258 207q44 0 138 -49q96 -47 123 -47q56 0 112 86l117 -104q-112 -207 -260 -207q-47 0 -133 47q-85 49 -127 49q-48 0 -113 -86z" />
    <glyph glyph-name="Itilde.alt.smcp" horiz-adv-x="845" 
d="M164 1114l-117 105q111 206 258 206q43 0 137 -49q96 -47 123 -47q56 0 115 86l115 -102q-112 -207 -260 -207q-48 0 -134 47t-127 47q-48 0 -110 -86zM47 1010h733v-256h-209v-498h209v-256h-733v256h209v498h-209v256z" />
    <glyph glyph-name="Itilde.smcp" horiz-adv-x="493" 
d="M-12 1114l-117 105q111 206 258 206q43 0 137 -49q96 -47 123 -47q56 0 115 86l114 -102q-112 -207 -260 -207q-47 0 -133 47t-127 47q-48 0 -110 -86zM88 1010h315v-1010h-315v1010z" />
    <glyph glyph-name="J.alt" horiz-adv-x="571" 
d="M461 1358v-1082q0 -46 -4 -116q-13 -150 -49 -223q-48 -113 -152.5 -197.5t-290.5 -136.5l-110 241q72 34 118.5 65t79 64.5t49 78t23 95.5t6.5 127v1084h330z" />
    <glyph glyph-name="J.alt.smcp" horiz-adv-x="509" 
d="M104 1010h316v-918q0 -61 -2 -86q-4 -101 -37 -168q-28 -57 -69.5 -102t-119.5 -87t-188 -69l-96 244q54 17 89.5 35t57 37.5t32.5 50t14 61t3 82.5v920z" />
    <glyph glyph-name="J.smcp" horiz-adv-x="878" 
d="M27 55l34 267q56 -29 133 -47.5t146 -18.5q77 0 112 37t35 108v353h-337v256h645v-691q0 -88 -37 -155.5t-98.5 -106t-133.5 -58t-151 -19.5q-96 0 -173.5 16t-174.5 59z" />
    <glyph glyph-name="Jcircumflex.alt" horiz-adv-x="571" 
d="M461 1358v-1082q0 -46 -4 -116q-13 -150 -49 -223q-48 -113 -152.5 -197.5t-290.5 -136.5l-110 241q72 34 118.5 65t79 64.5t49 78t23 95.5t6.5 127v1084h330zM393 1841l289 -371h-264l-121 170l-123 -170h-262l287 371h194z" />
    <glyph glyph-name="Jcircumflex.alt.smcp" horiz-adv-x="550" 
d="M377 1462l287 -368h-265l-120 168l-121 -168h-264l286 368h197zM123 1010h315v-918q0 -61 -2 -86q-4 -101 -37 -168q-43 -89 -129.5 -153.5t-246.5 -104.5l-97 244q67 21 106 42.5t59.5 54.5t26 69t5.5 100v920z" />
    <glyph glyph-name="Jcircumflex.smcp" horiz-adv-x="909" 
d="M571 1462l287 -368h-262l-123 168l-121 -168h-264l289 368h194zM27 55l34 267q56 -29 133 -47.5t146 -18.5q77 0 112 37t35 108v353h-337v256h645v-691q0 -88 -37 -155.5t-98.5 -106t-133.5 -58t-151 -19.5q-96 0 -173.5 16t-174.5 59z" />
    <glyph glyph-name="K.alt" horiz-adv-x="1429" 
d="M651 801l303 557h367l-406 -703l43 -67q11 -18 49 -83.5t66 -107.5q65 -84 131.5 -130t155.5 -46q26 0 61 6v-239q0 -2 -17 -7t-55 -9.5t-83 -4.5q-90 0 -173 36t-142 90.5t-113.5 122.5t-90 127.5t-70 110.5t-54.5 68h-181v-522h-329v1358h329v-557h209z" />
    <glyph glyph-name="K.alt.smcp" horiz-adv-x="1134" 
d="M737 1010h342l-313 -523q10 -14 42 -67t42 -68q84 -112 205 -112q27 0 63 4v-250q-46 -14 -119 -14q-116 4 -189 35t-130 96q-51 59 -64 77l-57 91l-51 83h-105v-362h-315v1010h315v-392h121z" />
    <glyph glyph-name="K.alt.swsh" horiz-adv-x="1343" 
d="M2159 -641q-234 0 -437 53.5t-365 152t-295.5 242t-232 318.5t-170.5 387h-217v-512h-329v1358h329v-570h211l303 572h371l-395 -694q159 -463 481 -727q323 -267 727 -267q209 0 363 49v-311q-59 -21 -156 -36t-188 -15z" />
    <glyph glyph-name="K.smcp" horiz-adv-x="1153" 
d="M403 1010v-392h111l217 392h348l-313 -518l385 -492h-375l-272 362h-101v-362h-315v1010h315z" />
    <glyph glyph-name="K.swsh" horiz-adv-x="1972" 
d="M2787 -641q-291 0 -533 81.5t-425.5 236.5t-317.5 365t-227 480h-211v-522h-328v1083q-243 0 -352.5 -113.5t-111.5 -355.5l-256 70q-15 113 5.5 214.5t77 185.5t144 145t214 95t279.5 34h328v-557h211l301 555h371l-400 -678q165 -473 484 -737q325 -269 729 -269
q208 0 362 49v-311q-59 -21 -156 -36t-188 -15z" />
    <glyph glyph-name="K.swsh.ss01" horiz-adv-x="2068" 
d="M1290 801l303 557h367l-406 -703l43 -67q11 -18 49 -83.5t66 -107.5q65 -84 131.5 -130t155.5 -46q27 0 61 6v-239q0 -2 -17 -7t-55 -9.5t-83 -4.5q-90 0 -173 36t-142 90.5t-113.5 122.5t-90 127.5t-70 110.5t-54.5 68h-187v-522h-330v1083q-243 0 -352.5 -113.5
t-111.5 -355.5l-256 70q-18 143 20 265.5t126.5 213.5t236 143t337.5 52h330v-557h215z" />
    <glyph glyph-name="Kcommaaccent.alt" horiz-adv-x="1429" 
d="M651 801l303 557h367l-406 -703l43 -67q11 -18 49 -83.5t66 -107.5q65 -84 131.5 -130t155.5 -46q26 0 61 6v-239q0 -2 -17 -7t-55 -9.5t-83 -4.5q-90 0 -173 36t-142 90.5t-113.5 122.5t-90 127.5t-70 110.5t-54.5 68h-181v-522h-329v1358h329v-557h209zM758 -539h-228
v443h297z" />
    <glyph glyph-name="Kcommaaccent.alt.smcp" horiz-adv-x="1134" 
d="M637 -539h-227v443h297zM737 1010h342l-313 -523q10 -14 42 -67t42 -68q84 -112 205 -112q27 0 63 4v-250q-46 -14 -119 -14q-116 4 -189 35t-130 96q-51 59 -64 77l-57 91l-51 83h-105v-362h-315v1010h315v-392h121z" />
    <glyph glyph-name="Kcommaaccent.alt.swsh" horiz-adv-x="1343" 
d="M743 -539h-227v443h297zM2159 -641q-234 0 -437 53.5t-365 152t-295.5 242t-232 318.5t-170.5 387h-217v-512h-329v1358h329v-570h211l303 572h371l-395 -694q159 -463 481 -727q323 -267 727 -267q209 0 363 49v-311q-59 -21 -156 -36t-188 -15z" />
    <glyph glyph-name="Kcommaaccent.smcp" horiz-adv-x="1153" 
d="M629 -539h-228v443h297zM403 1010v-392h111l217 392h348l-313 -518l385 -492h-375l-272 362h-101v-362h-315v1010h315z" />
    <glyph glyph-name="Kcommaaccent.swsh" horiz-adv-x="1972" 
d="M1366 -539h-225v443h297zM2787 -641q-291 0 -533 81.5t-425.5 236.5t-317.5 365t-227 480h-211v-522h-328v1083q-243 0 -352.5 -113.5t-111.5 -355.5l-256 70q-15 113 5.5 214.5t77 185.5t144 145t214 95t279.5 34h328v-557h211l301 555h371l-400 -678q165 -473 484 -737
q325 -269 729 -269q208 0 362 49v-311q-59 -21 -156 -36t-188 -15z" />
    <glyph glyph-name="Kcommaaccent.swsh.ss01" horiz-adv-x="2068" 
d="M1290 801l303 557h367l-406 -703l43 -67q11 -18 49 -83.5t66 -107.5q65 -84 131.5 -130t155.5 -46q27 0 61 6v-239q0 -2 -17 -7t-55 -9.5t-83 -4.5q-90 0 -173 36t-142 90.5t-113.5 122.5t-90 127.5t-70 110.5t-54.5 68h-187v-522h-330v1083q-243 0 -352.5 -113.5
t-111.5 -355.5l-256 70q-18 143 20 265.5t126.5 213.5t236 143t337.5 52h330v-557h215zM1364 -539h-227v443h297z" />
    <glyph glyph-name="L.smcp" horiz-adv-x="911" 
d="M403 256h484v-256h-799v1010h315v-754z" />
    <glyph glyph-name="L.swsh" horiz-adv-x="1783" 
d="M1071 276h690v-276h-1018v1083q-242 0 -351 -113.5t-111 -355.5l-256 70q-18 143 19.5 265.5t125.5 213.5t235.5 143t337.5 52h328v-1082z" />
    <glyph glyph-name="Lacute.smcp" horiz-adv-x="911" 
d="M274 1430h363l-264 -334h-260zM403 256h484v-256h-799v1010h315v-754z" />
    <glyph glyph-name="Lacute.swsh" horiz-adv-x="1783" 
d="M1071 276h690v-276h-1018v1083q-242 0 -351 -113.5t-111 -355.5l-256 70q-18 143 19.5 265.5t125.5 213.5t235.5 143t337.5 52h328v-1082zM905 1806h363l-264 -333h-261z" />
    <glyph glyph-name="Lcaron.smcp" horiz-adv-x="913" 
d="M748 567h-228v443h297zM403 256h484v-256h-799v1010h315v-754z" />
    <glyph glyph-name="Lcaron.swsh" horiz-adv-x="1785" 
d="M1524 915h-228v443h297zM1071 276h690v-276h-1018v1083q-242 0 -351 -113.5t-111 -355.5l-256 70q-18 143 19.5 265.5t125.5 213.5t235.5 143t337.5 52h328v-1082z" />
    <glyph glyph-name="Lcommaaccent.smcp" horiz-adv-x="911" 
d="M588 -539h-228v443h297zM403 256h484v-256h-799v1010h315v-754z" />
    <glyph glyph-name="Lcommaaccent.swsh" horiz-adv-x="1783" 
d="M1071 276h690v-276h-1018v1083q-242 0 -351 -113.5t-111 -355.5l-256 70q-18 143 19.5 265.5t125.5 213.5t235.5 143t337.5 52h328v-1082zM1358 -539h-225v443h297z" />
    <glyph glyph-name="Ldot.smcp" horiz-adv-x="913" 
d="M688 365q-75 0 -123.5 48.5t-48.5 123.5t48.5 123.5t123.5 48.5q78 0 126 -48.5t48 -123.5t-48 -123.5t-126 -48.5zM403 256h484v-256h-799v1010h315v-754z" />
    <glyph glyph-name="Ldot.swsh" horiz-adv-x="1783" 
d="M1071 276h690v-276h-1018v1083q-242 0 -351 -113.5t-111 -355.5l-256 70q-18 143 19.5 265.5t125.5 213.5t235.5 143t337.5 52h328v-1082zM1477 526q-75 0 -123.5 48.5t-48.5 123.5t48.5 123.5t123.5 48.5t124.5 -48.5t49.5 -123.5t-49.5 -123.5t-124.5 -48.5z" />
    <glyph glyph-name="Lslash.smcp" horiz-adv-x="999" 
d="M492 256h483v-256h-799v492l-137 -9v154l137 6v367h316v-346l233 14v-154l-233 -12v-256z" />
    <glyph glyph-name="Lslash.swsh" horiz-adv-x="1783" 
d="M1071 276h690v-276h-1018v645l-194 -10v244l194 12v192q-242 0 -351 -113.5t-111 -355.5l-256 70q-18 143 19.5 265.5t125.5 213.5t235.5 143t337.5 52h328v-449l301 19v-244l-301 -18v-390z" />
    <glyph glyph-name="M.smcp" horiz-adv-x="1357" 
d="M954 559l-256 -293h-39l-256 293v-559h-315v1010h262l330 -383l328 383h262v-1010h-316v559z" />
    <glyph glyph-name="M.swsh" horiz-adv-x="2373" 
d="M745 1358h279l481 -570l477 570h279v-1358h-330v848l-405 -465h-39l-412 465v-848h-327v1085l-3 -2q-243 0 -352.5 -113.5t-111.5 -355.5l-256 70q-18 144 19.5 267t126.5 213.5t236 142t338 51.5z" />
    <glyph glyph-name="N.smcp" horiz-adv-x="1187" 
d="M848 0l-445 516v-516h-315v1010h254l442 -516v516h316v-1010h-252z" />
    <glyph glyph-name="N.swsh" horiz-adv-x="2162" 
d="M1763 0l-690 819v-819h-328v1083q-243 0 -352.5 -113.5t-111.5 -355.5l-256 70q-18 144 19.5 267t126.5 213.5t236 142t338 51.5h279l696 -828v828h328v-1358h-285z" />
    <glyph glyph-name="Nacute.smcp" horiz-adv-x="1187" 
d="M614 1430h363l-264 -334h-260zM848 0l-445 516v-516h-315v1010h254l442 -516v516h316v-1010h-252z" />
    <glyph glyph-name="Nacute.swsh" horiz-adv-x="2162" 
d="M1763 0l-690 819v-819h-328v1083q-243 0 -352.5 -113.5t-111.5 -355.5l-256 70q-18 144 19.5 267t126.5 213.5t236 142t338 51.5h279l696 -828v828h328v-1358h-285zM1417 1806h363l-262 -333h-263z" />
    <glyph glyph-name="Ncaron.smcp" horiz-adv-x="1187" 
d="M207 1473h262l123 -168l121 168h264l-289 -369h-194zM848 0l-445 516v-516h-315v1010h254l442 -516v516h316v-1010h-252z" />
    <glyph glyph-name="Ncaron.swsh" horiz-adv-x="2162" 
d="M1763 0l-690 819v-819h-328v1083q-243 0 -352.5 -113.5t-111.5 -355.5l-256 70q-18 144 19.5 267t126.5 213.5t236 142t338 51.5h279l696 -828v828h328v-1358h-285zM1028 1851h264l121 -170l123 170h262l-287 -370h-194z" />
    <glyph glyph-name="Ncommaaccent.smcp" horiz-adv-x="1187" 
d="M721 -539h-227v443h297zM848 0l-445 516v-516h-315v1010h254l442 -516v516h316v-1010h-252z" />
    <glyph glyph-name="Ncommaaccent.swsh" horiz-adv-x="2162" 
d="M1763 0l-690 819v-819h-328v1083q-243 0 -352.5 -113.5t-111.5 -355.5l-256 70q-18 144 19.5 267t126.5 213.5t236 142t338 51.5h279l696 -828v828h328v-1358h-285zM1470 -539h-225v443h297z" />
    <glyph glyph-name="Nhookleft.smcp" horiz-adv-x="1204" 
d="M864 0l-442 516v-590q0 -166 -96 -256t-232 -90q-122 0 -188 29l24 264q38 -7 66 -7t55 8.5t41 34t14 66.5v1035h252l443 -516v516h315v-1010h-252z" />
    <glyph glyph-name="Ntilde.smcp" horiz-adv-x="1187" 
d="M338 1114l-115 105q111 206 258 206q43 0 137 -49q96 -47 123 -47q57 0 113 86l115 -102q-112 -207 -258 -207q-50 0 -136 47t-124 47q-48 0 -113 -86zM848 0l-445 516v-516h-315v1010h254l442 -516v516h316v-1010h-252z" />
    <glyph glyph-name="Ntilde.swsh" horiz-adv-x="2162" 
d="M1763 0l-690 819v-819h-328v1083q-243 0 -352.5 -113.5t-111.5 -355.5l-256 70q-18 144 19.5 267t126.5 213.5t236 142t338 51.5h279l696 -828v828h328v-1358h-285zM1130 1493l-114 104q112 207 258 207q43 0 137 -49q96 -47 123 -47q57 0 113 86l114 -104
q-109 -207 -258 -207q-49 0 -135 47q-85 49 -125 49q-48 0 -113 -86z" />
    <glyph glyph-name="O.smcp" horiz-adv-x="1187" 
d="M49 508q0 231 152 377q151 145 395 145q240 0 391 -145q152 -146 152 -377q0 -234 -152 -383q-151 -145 -391 -145q-244 0 -395 145q-152 149 -152 383zM360 508q0 -110 66 -180t170 -70q103 0 167 70t64 180q0 109 -64 176.5t-167 67.5q-104 0 -170 -67.5t-66 -176.5z
" />
    <glyph glyph-name="OE.smcp" horiz-adv-x="1673" 
d="M1161 256h461v-256h-774v55q-107 -73 -252 -73q-244 0 -395 145q-152 146 -152 381q0 231 152 377q151 145 395 145q145 0 252 -76v56h770v-256h-457v-119h408v-246h-408v-133zM360 508q0 -110 68.5 -180t177.5 -70q104 0 170.5 66t71.5 172v12q0 108 -68 176t-174 68
q-109 0 -177.5 -67.5t-68.5 -176.5z" />
    <glyph glyph-name="Oacute.smcp" horiz-adv-x="1187" 
d="M629 1430h360l-262 -334h-260zM49 508q0 231 152 377q151 145 395 145q240 0 391 -145q152 -146 152 -377q0 -234 -152 -383q-151 -145 -391 -145q-244 0 -395 145q-152 149 -152 383zM360 508q0 -110 66 -180t170 -70q103 0 167 70t64 180q0 109 -64 176.5t-167 67.5
q-104 0 -170 -67.5t-66 -176.5z" />
    <glyph glyph-name="Obreve.smcp" horiz-adv-x="1187" 
d="M270 1415h209q2 -57 34 -93t81 -36q51 0 82 36t33 93h209q-6 -147 -95 -236t-229 -89t-229 89t-95 236zM49 508q0 231 152 377q151 145 395 145q240 0 391 -145q152 -146 152 -377q0 -234 -152 -383q-151 -145 -391 -145q-244 0 -395 145q-152 149 -152 383zM360 508
q0 -110 66 -180t170 -70q103 0 167 70t64 180q0 109 -64 176.5t-167 67.5q-104 0 -170 -67.5t-66 -176.5z" />
    <glyph glyph-name="Ocircumflex.smcp" horiz-adv-x="1187" 
d="M690 1462l289 -368h-264l-121 168l-123 -168h-262l287 368h194zM49 508q0 231 152 377q151 145 395 145q240 0 391 -145q152 -146 152 -377q0 -234 -152 -383q-151 -145 -391 -145q-244 0 -395 145q-152 149 -152 383zM360 508q0 -110 66 -180t170 -70q103 0 167 70
t64 180q0 109 -64 176.5t-167 67.5q-104 0 -170 -67.5t-66 -176.5z" />
    <glyph glyph-name="Odieresis.smcp" horiz-adv-x="1187" 
d="M784 1110q-66 0 -107.5 42t-41.5 108q0 68 41.5 110.5t107.5 42.5q69 0 111.5 -42.5t42.5 -110.5q0 -66 -42.5 -108t-111.5 -42zM408 1110q-67 0 -109.5 42t-42.5 108q0 68 42.5 110.5t109.5 42.5t109 -42.5t42 -110.5q0 -66 -42 -108t-109 -42zM49 508q0 231 152 377
q151 145 395 145q240 0 391 -145q152 -146 152 -377q0 -234 -152 -383q-151 -145 -391 -145q-244 0 -395 145q-152 149 -152 383zM360 508q0 -110 66 -180t170 -70q103 0 167 70t64 180q0 109 -64 176.5t-167 67.5q-104 0 -170 -67.5t-66 -176.5z" />
    <glyph glyph-name="Odotbelow.smcp" horiz-adv-x="1187" 
d="M420 -285q0 72 50 123t122 51q73 0 124.5 -51t51.5 -123q0 -73 -51.5 -121.5t-124.5 -48.5q-72 0 -122 50.5t-50 119.5zM49 508q0 231 152 377q151 145 395 145q240 0 391 -145q152 -146 152 -377q0 -234 -152 -383q-151 -145 -391 -145q-244 0 -395 145
q-152 149 -152 383zM360 508q0 -110 66 -180t170 -70q103 0 167 70t64 180q0 109 -64 176.5t-167 67.5q-104 0 -170 -67.5t-66 -176.5z" />
    <glyph glyph-name="Ograve.smcp" horiz-adv-x="1187" 
d="M725 1096h-260l-264 334h362zM49 508q0 231 152 377q151 145 395 145q240 0 391 -145q152 -146 152 -377q0 -234 -152 -383q-151 -145 -391 -145q-244 0 -395 145q-152 149 -152 383zM360 508q0 -110 66 -180t170 -70q103 0 167 70t64 180q0 109 -64 176.5t-167 67.5
q-104 0 -170 -67.5t-66 -176.5z" />
    <glyph glyph-name="Ohungarumlaut.smcp" horiz-adv-x="1245" 
d="M283 1096l161 334h324l-233 -334h-252zM854 1430h342l-272 -334h-250zM49 508q0 231 152 377q151 145 395 145q240 0 391 -145q152 -146 152 -377q0 -234 -152 -383q-151 -145 -391 -145q-244 0 -395 145q-152 149 -152 383zM360 508q0 -110 66 -180t170 -70
q103 0 167 70t64 180q0 109 -64 176.5t-167 67.5q-104 0 -170 -67.5t-66 -176.5z" />
    <glyph glyph-name="Omacron.smcp" horiz-adv-x="1187" 
d="M299 1327h590v-205h-590v205zM49 508q0 231 152 377q151 145 395 145q240 0 391 -145q152 -146 152 -377q0 -234 -152 -383q-151 -145 -391 -145q-244 0 -395 145q-152 149 -152 383zM360 508q0 -110 66 -180t170 -70q103 0 167 70t64 180q0 109 -64 176.5t-167 67.5
q-104 0 -170 -67.5t-66 -176.5z" />
    <glyph glyph-name="Oogonek.smcp" horiz-adv-x="1187" 
d="M49 508q0 231 152 377q151 145 395 145q240 0 391 -145q152 -146 152 -377q0 -194 -104 -330t-285 -180q-193 -111 -193 -193q0 -35 25.5 -55t68.5 -20q58 0 109 26l63 -176q-86 -57 -219 -57q-120 0 -190 58t-70 153q0 142 168 252q-211 24 -338 166q-125 143 -125 356z
M360 508q0 -110 66 -180t170 -70q103 0 167 70t64 180q0 109 -64 176.5t-167 67.5q-104 0 -170 -67.5t-66 -176.5z" />
    <glyph glyph-name="Oslash.smcp" horiz-adv-x="1236" 
d="M74 508q0 232 151 377t396 145q158 0 278 -63l178 213l121 -97l-174 -209q139 -145 139 -366q0 -235 -151 -383q-151 -145 -391 -145q-156 0 -283 65l-176 -213l-121 96l172 209q-139 145 -139 371zM852 508q0 62 -29 125l-295 -359q43 -16 93 -16q104 0 167.5 69.5
t63.5 180.5zM385 508q0 -67 29 -127l295 354q-46 17 -88 17q-104 0 -170 -67.5t-66 -176.5z" />
    <glyph glyph-name="Oslashacute.smcp" horiz-adv-x="1236" 
d="M74 508q0 232 151 377t396 145q158 0 278 -63l178 213l121 -97l-174 -209q139 -145 139 -366q0 -235 -151 -383q-151 -145 -391 -145q-156 0 -283 65l-176 -213l-121 96l172 209q-139 145 -139 371zM659 1430h363l-262 -334h-262zM852 508q0 62 -29 125l-295 -359
q43 -16 93 -16q104 0 167.5 69.5t63.5 180.5zM385 508q0 -67 29 -127l295 354q-46 17 -88 17q-104 0 -170 -67.5t-66 -176.5z" />
    <glyph glyph-name="Otilde.smcp" horiz-adv-x="1187" 
d="M338 1114l-117 105q111 206 258 206q43 0 137 -49q96 -47 123 -47q56 0 115 86l115 -102q-112 -207 -260 -207q-48 0 -134 47t-126 47q-49 0 -111 -86zM49 508q0 231 152 377q151 145 395 145q240 0 391 -145q152 -146 152 -377q0 -234 -152 -383q-151 -145 -391 -145
q-244 0 -395 145q-152 149 -152 383zM360 508q0 -110 66 -180t170 -70q103 0 167 70t64 180q0 109 -64 176.5t-167 67.5q-104 0 -170 -67.5t-66 -176.5z" />
    <glyph glyph-name="P.smcp" horiz-adv-x="1038" 
d="M604 266h-201v-266h-315v1010h516q177 0 289 -103q111 -102 111 -270q0 -166 -111 -268q-112 -103 -289 -103zM557 754h-154v-242h154q60 0 97.5 33.5t37.5 87.5t-37.5 87.5t-97.5 33.5z" />
    <glyph glyph-name="P.swsh" horiz-adv-x="1945" 
d="M1905 870q0 -213 -148.5 -349t-370.5 -136h-313v-385h-328v1083q-243 0 -352.5 -113.5t-111.5 -355.5l-256 70q-15 113 5.5 214.5t77 185.5t144 145t214 95t279.5 34h641q146 0 264 -60.5t186.5 -172.5t68.5 -255zM1364 1081h-291v-419h291q91 0 147 59t56 151
q0 94 -56 151.5t-147 57.5z" />
    <glyph glyph-name="Q.alt" horiz-adv-x="1579" 
d="M59 678q0 196 93.5 357t255.5 252t358 91q192 4 357 -89t260.5 -256t91.5 -355q0 -165 -67 -305.5t-189 -237.5l301 -358l-271 -217l-315 440q-76 -20 -168 -20q-196 0 -358 91.5t-255.5 252t-93.5 354.5zM395 678q0 -168 103 -283q103 -112 270 -112q168 0 268 112
q101 113 101 283q0 175 -101 285t-268 110q-170 0 -270 -112q-103 -112 -103 -283z" />
    <glyph glyph-name="Q.alt.smcp" horiz-adv-x="1198" 
d="M49 508q0 231 152 377q151 145 395 145q240 0 391 -145q152 -146 152 -377q0 -134 -54 -245.5t-151 -180.5l217 -244l-238 -172l-221 322q-49 -8 -96 -8q-244 0 -395 145q-152 149 -152 383zM360 508q0 -110 66 -180t170 -70q103 0 167 70t64 180q0 109 -64 176.5
t-167 67.5q-104 0 -170 -67.5t-66 -176.5z" />
    <glyph glyph-name="Q.smcp" horiz-adv-x="1267" 
d="M49 508q0 231 152 377q151 145 395 145q240 0 391 -145q152 -146 152 -377q0 -170 -81.5 -296.5t-228.5 -186.5q137 -88 340 -88q101 0 187 22v-225q-96 -35 -211 -35q-173 0 -346 78q-166 76 -260 205q-221 18 -355 161q-135 144 -135 365zM360 508q0 -110 66 -180
t170 -70q103 0 167 70t64 180q0 109 -64 176.5t-167 67.5q-104 0 -170 -67.5t-66 -176.5z" />
    <glyph glyph-name="Q.swsh" horiz-adv-x="1570" 
d="M59 678q-4 192 91 355t259.5 256t356.5 89q197 0 359 -91t255 -252t93 -357q0 -165 -66 -305.5t-188 -237.5q440 -467 1071 -467q168 0 290 26.5t240 80.5v-305q-62 -43 -235 -78q-162 -33 -297 -33q-255 0 -521 86q-263 86 -479.5 230.5t-351.5 324.5q-76 -20 -170 -20
q-192 -4 -356.5 89.5t-259.5 256t-91 352.5zM395 678q0 -168 103 -283q103 -112 270 -112q168 0 268 112q101 113 101 283q0 175 -101 285t-268 110q-170 0 -270 -112q-103 -112 -103 -283z" />
    <glyph glyph-name="R.alt" horiz-adv-x="1382" 
d="M735 1081h-293v-419h293q91 0 147 59t56 151q0 94 -56 151.5t-147 57.5zM614 385h-172v-385h-329v1358h645q224 0 370 -137q148 -136 148 -349q0 -152 -82 -270t-223 -176q28 -28 51 -55l55 -56q100 -91 191 -82q34 0 69 9v-242q0 -2 -17 -6.5t-55.5 -9t-82.5 -4.5
q-194 0 -355 161q-46 46 -77 88q-80 112 -136 156z" />
    <glyph glyph-name="R.alt.smcp" horiz-adv-x="1077" 
d="M1004 643q0 -110 -56 -199.5t-155 -130.5q36 -44 76 -63t100 -19q13 0 63 5v-238q-2 -2 -15.5 -6t-43.5 -8t-62 -4q-174 0 -303 116q-39 39 -76 97l-51 88h-78v-281h-315v1010h516q183 0 291.5 -102.5t108.5 -264.5zM553 754h-150v-232h150q64 0 99.5 30t35.5 85
q0 117 -135 117z" />
    <glyph glyph-name="R.alt.swsh" horiz-adv-x="1337" 
d="M729 385h-287v-385h-329v1358h645q224 0 370 -137q148 -136 148 -349q0 -129 -65.5 -240.5t-182.5 -178.5q47 -100 86 -166q357 -615 1055 -615q176 0 330 49v-311q-60 -21 -157 -36t-190 -15q-530 0 -882 274q-336 262 -541 752zM735 1081h-293v-419h293q91 0 147 59
t56 151q0 94 -56 151.5t-147 57.5z" />
    <glyph glyph-name="R.smcp" horiz-adv-x="1110" 
d="M827 338l254 -338h-360l-195 266h-123v-266h-315v1010h518q177 0 289 -103q111 -102 111 -268q0 -93 -49.5 -176.5t-129.5 -124.5zM557 754h-154v-242h154q61 0 98 33.5t37 87.5t-37 87.5t-98 33.5z" />
    <glyph glyph-name="R.swsh" horiz-adv-x="1970" 
d="M1364 385h-289v-385h-327v1085l-3 -2q-243 0 -352.5 -113.5t-111.5 -355.5l-256 70q-18 143 20 265.5t126.5 213.5t236 143t337.5 52h3h645q222 0 368 -137q148 -136 148 -349q0 -128 -65.5 -240t-180.5 -179q40 -88 86 -166q349 -615 1053 -615q175 0 329 49v-311
q-59 -21 -156 -36t-188 -15q-266 0 -488 69.5t-396 204t-306.5 321t-232.5 431.5zM1368 1081h-293v-419h293q91 0 148 59t57 151q0 94 -56.5 151.5t-148.5 57.5z" />
    <glyph glyph-name="R.swsh.ss01" horiz-adv-x="2015" 
d="M1247 385h-172v-385h-330v1083q-243 0 -352.5 -113.5t-111.5 -355.5l-256 70q-18 143 20 265.5t126.5 213.5t236 143t337.5 52h646q224 0 370 -137q148 -136 148 -349q0 -152 -82 -270t-223 -176q14 -13 55.5 -57.5t50.5 -53.5q100 -91 191 -82q35 0 69 9v-242
q0 -2 -17 -6.5t-55.5 -9t-82.5 -4.5q-194 0 -355 161q-49 49 -78 88q-82 114 -135 156zM1368 1081h-293v-419h293q91 0 147 59t56 151q0 94 -56 151.5t-147 57.5z" />
    <glyph glyph-name="Racute.alt" horiz-adv-x="1382" 
d="M735 1081h-293v-419h293q91 0 147 59t56 151q0 94 -56 151.5t-147 57.5zM614 385h-172v-385h-329v1358h645q224 0 370 -137q148 -136 148 -349q0 -152 -82 -270t-223 -176q28 -28 51 -55l55 -56q100 -91 191 -82q34 0 69 9v-242q0 -2 -17 -6.5t-55.5 -9t-82.5 -4.5
q-194 0 -355 161q-46 46 -77 88q-80 112 -136 156zM653 1806h363l-262 -333h-262z" />
    <glyph glyph-name="Racute.alt.smcp" horiz-adv-x="1077" 
d="M508 1430h360l-262 -334h-262zM1004 643q0 -110 -56 -199.5t-155 -130.5q36 -44 76 -63t100 -19q13 0 63 5v-238q-2 -2 -15.5 -6t-43.5 -8t-62 -4q-174 0 -303 116q-39 39 -76 97l-51 88h-78v-281h-315v1010h516q183 0 291.5 -102.5t108.5 -264.5zM553 754h-150v-232h150
q64 0 99.5 30t35.5 85q0 117 -135 117z" />
    <glyph glyph-name="Racute.alt.swsh" horiz-adv-x="1337" 
d="M729 385h-287v-385h-329v1358h645q224 0 370 -137q148 -136 148 -349q0 -129 -65.5 -240.5t-182.5 -178.5q47 -100 86 -166q357 -615 1055 -615q176 0 330 49v-311q-60 -21 -157 -36t-190 -15q-530 0 -882 274q-336 262 -541 752zM735 1081h-293v-419h293q91 0 147 59
t56 151q0 94 -56 151.5t-147 57.5zM684 1806h363l-265 -333h-260z" />
    <glyph glyph-name="Racute.smcp" horiz-adv-x="1110" 
d="M520 1430h363l-265 -334h-260zM827 338l254 -338h-360l-195 266h-123v-266h-315v1010h518q177 0 289 -103q111 -102 111 -268q0 -93 -49.5 -176.5t-129.5 -124.5zM557 754h-154v-242h154q61 0 98 33.5t37 87.5t-37 87.5t-98 33.5z" />
    <glyph glyph-name="Racute.swsh" horiz-adv-x="1970" 
d="M1364 385h-289v-385h-327v1085l-3 -2q-243 0 -352.5 -113.5t-111.5 -355.5l-256 70q-18 143 20 265.5t126.5 213.5t236 143t337.5 52h3h645q222 0 368 -137q148 -136 148 -349q0 -128 -65.5 -240t-180.5 -179q40 -88 86 -166q349 -615 1053 -615q175 0 329 49v-311
q-59 -21 -156 -36t-188 -15q-266 0 -488 69.5t-396 204t-306.5 321t-232.5 431.5zM1368 1081h-293v-419h293q91 0 148 59t57 151q0 94 -56.5 151.5t-148.5 57.5zM1331 1806h363l-264 -333h-261z" />
    <glyph glyph-name="Racute.swsh.ss01" horiz-adv-x="2015" 
d="M1247 385h-172v-385h-330v1083q-243 0 -352.5 -113.5t-111.5 -355.5l-256 70q-18 143 20 265.5t126.5 213.5t236 143t337.5 52h646q224 0 370 -137q148 -136 148 -349q0 -152 -82 -270t-223 -176q14 -13 55.5 -57.5t50.5 -53.5q100 -91 191 -82q35 0 69 9v-242
q0 -2 -17 -6.5t-55.5 -9t-82.5 -4.5q-194 0 -355 161q-49 49 -78 88q-82 114 -135 156zM1368 1081h-293v-419h293q91 0 147 59t56 151q0 94 -56 151.5t-147 57.5zM1294 1806h363l-264 -333h-260z" />
    <glyph glyph-name="Rcaron.alt" horiz-adv-x="1382" 
d="M735 1081h-293v-419h293q91 0 147 59t56 151q0 94 -56 151.5t-147 57.5zM614 385h-172v-385h-329v1358h645q224 0 370 -137q148 -136 148 -349q0 -152 -82 -270t-223 -176q28 -28 51 -55l55 -56q100 -91 191 -82q34 0 69 9v-242q0 -2 -17 -6.5t-55.5 -9t-82.5 -4.5
q-194 0 -355 161q-46 46 -77 88q-80 112 -136 156zM240 1851h264l121 -170l120 170h265l-287 -370h-197z" />
    <glyph glyph-name="Rcaron.alt.smcp" horiz-adv-x="1077" 
d="M102 1473h265l120 -168l121 168h264l-286 -369h-197zM1004 643q0 -110 -56 -199.5t-155 -130.5q36 -44 76 -63t100 -19q13 0 63 5v-238q-2 -2 -15.5 -6t-43.5 -8t-62 -4q-174 0 -303 116q-39 39 -76 97l-51 88h-78v-281h-315v1010h516q183 0 291.5 -102.5t108.5 -264.5z
M553 754h-150v-232h150q64 0 99.5 30t35.5 85q0 117 -135 117z" />
    <glyph glyph-name="Rcaron.alt.swsh" horiz-adv-x="1337" 
d="M729 385h-287v-385h-329v1358h645q224 0 370 -137q148 -136 148 -349q0 -129 -65.5 -240.5t-182.5 -178.5q47 -100 86 -166q357 -615 1055 -615q176 0 330 49v-311q-60 -21 -157 -36t-190 -15q-530 0 -882 274q-336 262 -541 752zM735 1081h-293v-419h293q91 0 147 59
t56 151q0 94 -56 151.5t-147 57.5zM299 1851h264l121 -170l123 170h262l-287 -370h-194z" />
    <glyph glyph-name="Rcaron.smcp" horiz-adv-x="1110" 
d="M113 1473h264l121 -168l120 168h265l-287 -369h-197zM827 338l254 -338h-360l-195 266h-123v-266h-315v1010h518q177 0 289 -103q111 -102 111 -268q0 -93 -49.5 -176.5t-129.5 -124.5zM557 754h-154v-242h154q61 0 98 33.5t37 87.5t-37 87.5t-98 33.5z" />
    <glyph glyph-name="Rcaron.swsh" horiz-adv-x="1970" 
d="M1364 385h-289v-385h-327v1085l-3 -2q-243 0 -352.5 -113.5t-111.5 -355.5l-256 70q-18 143 20 265.5t126.5 213.5t236 143t337.5 52h3h645q222 0 368 -137q148 -136 148 -349q0 -128 -65.5 -240t-180.5 -179q40 -88 86 -166q349 -615 1053 -615q175 0 329 49v-311
q-59 -21 -156 -36t-188 -15q-266 0 -488 69.5t-396 204t-306.5 321t-232.5 431.5zM1368 1081h-293v-419h293q91 0 148 59t57 151q0 94 -56.5 151.5t-148.5 57.5zM895 1851h264l121 -170l121 170h264l-287 -370h-196z" />
    <glyph glyph-name="Rcaron.swsh.ss01" horiz-adv-x="2015" 
d="M1247 385h-172v-385h-330v1083q-243 0 -352.5 -113.5t-111.5 -355.5l-256 70q-18 143 20 265.5t126.5 213.5t236 143t337.5 52h646q224 0 370 -137q148 -136 148 -349q0 -152 -82 -270t-223 -176q14 -13 55.5 -57.5t50.5 -53.5q100 -91 191 -82q35 0 69 9v-242
q0 -2 -17 -6.5t-55.5 -9t-82.5 -4.5q-194 0 -355 161q-49 49 -78 88q-82 114 -135 156zM1368 1081h-293v-419h293q91 0 147 59t56 151q0 94 -56 151.5t-147 57.5zM887 1851h264l121 -170l121 170h264l-287 -370h-196z" />
    <glyph glyph-name="Rcommaaccent.alt" horiz-adv-x="1382" 
d="M735 1081h-293v-419h293q91 0 147 59t56 151q0 94 -56 151.5t-147 57.5zM614 385h-172v-385h-329v1358h645q224 0 370 -137q148 -136 148 -349q0 -152 -82 -270t-223 -176q28 -28 51 -55l55 -56q100 -91 191 -82q34 0 69 9v-242q0 -2 -17 -6.5t-55.5 -9t-82.5 -4.5
q-194 0 -355 161q-46 46 -77 88q-80 112 -136 156zM745 -539h-227v443h297z" />
    <glyph glyph-name="Rcommaaccent.alt.smcp" horiz-adv-x="1077" 
d="M598 -539h-225v443h297zM1004 643q0 -110 -56 -199.5t-155 -130.5q36 -44 76 -63t100 -19q13 0 63 5v-238q-2 -2 -15.5 -6t-43.5 -8t-62 -4q-174 0 -303 116q-39 39 -76 97l-51 88h-78v-281h-315v1010h516q183 0 291.5 -102.5t108.5 -264.5zM553 754h-150v-232h150
q64 0 99.5 30t35.5 85q0 117 -135 117z" />
    <glyph glyph-name="Rcommaaccent.alt.swsh" horiz-adv-x="1337" 
d="M729 385h-287v-385h-329v1358h645q224 0 370 -137q148 -136 148 -349q0 -129 -65.5 -240.5t-182.5 -178.5q47 -100 86 -166q357 -615 1055 -615q176 0 330 49v-311q-60 -21 -157 -36t-190 -15q-530 0 -882 274q-336 262 -541 752zM735 1081h-293v-419h293q91 0 147 59
t56 151q0 94 -56 151.5t-147 57.5zM758 -539h-228v443h297z" />
    <glyph glyph-name="Rcommaaccent.smcp" horiz-adv-x="1110" 
d="M616 -539h-225v443h297zM827 338l254 -338h-360l-195 266h-123v-266h-315v1010h518q177 0 289 -103q111 -102 111 -268q0 -93 -49.5 -176.5t-129.5 -124.5zM557 754h-154v-242h154q61 0 98 33.5t37 87.5t-37 87.5t-98 33.5z" />
    <glyph glyph-name="Rcommaaccent.swsh" horiz-adv-x="1970" 
d="M1364 385h-289v-385h-327v1085l-3 -2q-243 0 -352.5 -113.5t-111.5 -355.5l-256 70q-18 143 20 265.5t126.5 213.5t236 143t337.5 52h3h645q222 0 368 -137q148 -136 148 -349q0 -128 -65.5 -240t-180.5 -179q40 -88 86 -166q349 -615 1053 -615q175 0 329 49v-311
q-59 -21 -156 -36t-188 -15q-266 0 -488 69.5t-396 204t-306.5 321t-232.5 431.5zM1368 1081h-293v-419h293q91 0 148 59t57 151q0 94 -56.5 151.5t-148.5 57.5zM1364 -539h-227v443h297z" />
    <glyph glyph-name="Rcommaaccent.swsh.ss01" horiz-adv-x="2015" 
d="M1247 385h-172v-385h-330v1083q-243 0 -352.5 -113.5t-111.5 -355.5l-256 70q-18 143 20 265.5t126.5 213.5t236 143t337.5 52h646q224 0 370 -137q148 -136 148 -349q0 -152 -82 -270t-223 -176q14 -13 55.5 -57.5t50.5 -53.5q100 -91 191 -82q35 0 69 9v-242
q0 -2 -17 -6.5t-55.5 -9t-82.5 -4.5q-194 0 -355 161q-49 49 -78 88q-82 114 -135 156zM1368 1081h-293v-419h293q91 0 147 59t56 151q0 94 -56 151.5t-147 57.5zM1341 -539h-227v443h297z" />
    <glyph glyph-name="S.smcp" horiz-adv-x="952" 
d="M494 1030q216 0 356 -76l-27 -264q-57 30 -145 49q-104 23 -170 23q-75 0 -108 -11t-33 -40q6 -26 24.5 -36.5t75.5 -25.5l160 -47q151 -42 215.5 -109.5t64.5 -187.5q0 -147 -117 -236t-313 -89q-236 0 -422 88l33 268q59 -34 164.5 -60t204.5 -26q139 0 139 49
q0 19 -20.5 31t-79.5 30l-156 41q-287 77 -287 310q0 145 121 231q119 88 320 88z" />
    <glyph glyph-name="Sacute.smcp" horiz-adv-x="952" 
d="M528 1430h363l-262 -334h-262zM494 1030q216 0 356 -76l-27 -264q-57 30 -145 49q-104 23 -170 23q-75 0 -108 -11t-33 -40q6 -26 24.5 -36.5t75.5 -25.5l160 -47q151 -42 215.5 -109.5t64.5 -187.5q0 -147 -117 -236t-313 -89q-236 0 -422 88l33 268q59 -34 164.5 -60
t204.5 -26q139 0 139 49q0 19 -20.5 31t-79.5 30l-156 41q-287 77 -287 310q0 145 121 231q119 88 320 88z" />
    <glyph glyph-name="Scaron.smcp" horiz-adv-x="952" 
d="M117 1473h264l121 -168l121 168h264l-289 -369h-195zM494 1030q216 0 356 -76l-27 -264q-57 30 -145 49q-104 23 -170 23q-75 0 -108 -11t-33 -40q6 -26 24.5 -36.5t75.5 -25.5l160 -47q151 -42 215.5 -109.5t64.5 -187.5q0 -147 -117 -236t-313 -89q-236 0 -422 88
l33 268q59 -34 164.5 -60t204.5 -26q139 0 139 49q0 19 -20.5 31t-79.5 30l-156 41q-287 77 -287 310q0 145 121 231q119 88 320 88z" />
    <glyph glyph-name="Scedilla.smcp" horiz-adv-x="952" 
d="M494 1030q216 0 356 -76l-27 -264q-57 30 -145 49q-104 23 -170 23q-75 0 -108 -11t-33 -40q6 -26 24.5 -36.5t75.5 -25.5l160 -47q151 -42 215.5 -109.5t64.5 -187.5q0 -134 -99.5 -222t-270.5 -101l-21 -64q106 -13 161.5 -64.5t55.5 -125.5q0 -92 -88.5 -148.5
t-230.5 -56.5q-100 0 -164 31v153q62 -18 131 -18q81 -6 109 37q22 34 -6 65q-32 37 -105 31h-76l66 164q-171 15 -314 82l33 268q59 -34 164.5 -60t204.5 -26q139 0 139 49q0 19 -20.5 31t-79.5 30l-156 41q-287 77 -287 310q0 145 121 231q119 88 320 88z" />
    <glyph glyph-name="Schwa.smcp" horiz-adv-x="1105" 
d="M731 395h-375q0 -63 50.5 -108t128.5 -45q86 0 138 42.5t58 110.5zM127 692l-45 248q66 39 169 64.5t208 25.5q278 0 436 -143q162 -140 162 -381q0 -236 -148 -381q-145 -145 -370 -145q-88 0 -168 23.5t-147 71t-110.5 120t-59.5 171.5t7 224h672q-10 79 -85.5 120.5
t-190.5 41.5q-94 0 -185.5 -17t-144.5 -43z" />
    <glyph glyph-name="Scircumflex.smcp" horiz-adv-x="952" 
d="M602 1462l289 -368h-264l-121 168l-123 -168h-262l287 368h194zM494 1030q216 0 356 -76l-27 -264q-57 30 -145 49q-104 23 -170 23q-75 0 -108 -11t-33 -40q6 -26 24.5 -36.5t75.5 -25.5l160 -47q151 -42 215.5 -109.5t64.5 -187.5q0 -147 -117 -236t-313 -89
q-236 0 -422 88l33 268q59 -34 164.5 -60t204.5 -26q139 0 139 49q0 19 -20.5 31t-79.5 30l-156 41q-287 77 -287 310q0 145 121 231q119 88 320 88z" />
    <glyph glyph-name="Scommaaccent.smcp" horiz-adv-x="952" 
d="M563 -539h-225v443h297zM494 1030q216 0 356 -76l-27 -264q-57 30 -145 49q-104 23 -170 23q-75 0 -108 -11t-33 -40q6 -26 24.5 -36.5t75.5 -25.5l160 -47q151 -42 215.5 -109.5t64.5 -187.5q0 -147 -117 -236t-313 -89q-236 0 -422 88l33 268q59 -34 164.5 -60
t204.5 -26q139 0 139 49q0 19 -20.5 31t-79.5 30l-156 41q-287 77 -287 310q0 145 121 231q119 88 320 88z" />
    <glyph glyph-name="T.smcp" horiz-adv-x="944" 
d="M631 0h-316v754h-290v256h897v-256h-291v-754z" />
    <glyph glyph-name="Tbar.smcp" horiz-adv-x="972" 
d="M643 0h-313v440h-207v154h207v160h-291v256h897v-256h-293v-160h207v-154h-207v-440z" />
    <glyph glyph-name="Tcaron.smcp" horiz-adv-x="944" 
d="M86 1473h264l121 -168l121 168h264l-287 -369h-196zM631 0h-316v754h-290v256h897v-256h-291v-754z" />
    <glyph glyph-name="Tcommaaccent.smcp" horiz-adv-x="944" 
d="M551 -539h-227v443h297zM631 0h-316v754h-290v256h897v-256h-291v-754z" />
    </font>
</defs>
</svg>
